<?xml version="1.0" standalone="no"?>
<!DOCTYPE svg PUBLIC "-//W3C//DTD SVG 1.1//EN" "http://www.w3.org/Graphics/SVG/1.1/DTD/svg11.dtd" >
<svg xmlns="http://www.w3.org/2000/svg" xmlns:xlink="http://www.w3.org/1999/xlink" version="1.1">
<metadata>
Created by FontForge 20201107 at Wed Mar 26 12:24:45 2025
 By 
Copyright 2017 CAST Cooperativa Anonima Servizi Tipografici. All rights reserved.
</metadata>
<defs>
<font id="Camel-Bold" horiz-adv-x="1126" >
  <font-face 
    font-family="Camel"
    font-weight="700"
    font-stretch="normal"
    units-per-em="2048"
    panose-1="0 0 0 0 0 0 0 0 0 0"
    ascent="1536"
    descent="-512"
    x-height="1475"
    cap-height="1475"
    bbox="-500 -690 2703 2322"
    underline-thickness="102"
    underline-position="-204"
    unicode-range="U+0020-25CA"
  />
<missing-glyph horiz-adv-x="1024" 
d="M0 0v1434h1024v-1434h-1024zM512 809l348 522h-696zM573 717l349 -522v1044zM164 102h696l-348 523zM102 1239v-1044l349 522z" />
    <glyph glyph-name="O_O" unicode="OO" horiz-adv-x="2791" 
d="M1853 1495q163 0 316.5 -56.5t272 -155t190 -244.5t71.5 -314q0 -132 -47.5 -251t-130 -207.5t-191 -154t-233.5 -99t-254 -33.5q-259 0 -454 129q-201 -129 -459 -129q-162 0 -314 53.5t-271 149t-191 238.5t-72 310q0 168 72.5 313t192 242.5t273 153t316.5 55.5
q258 0 455 -133q199 133 458 133zM434 725q0 -142 71 -251.5t186.5 -165.5t254.5 -56q112 0 213 37q-172 187 -172 442q0 259 176 451q-99 41 -223 41q-136 0 -252 -63.5t-185 -178.5t-69 -256zM1847 252q137 0 252.5 59.5t185.5 170t70 249.5q0 143 -71 256.5t-188 174.5
t-255 61q-119 0 -217 -39q178 -197 178 -459q0 -246 -176 -438q107 -35 221 -35zM1393 432q110 129 110 299q0 169 -106 301q-111 -137 -111 -307q0 -167 107 -293z" />
    <glyph glyph-name=".notdef" horiz-adv-x="1024" 
d="M0 0v1434h1024v-1434h-1024zM512 809l348 522h-696zM573 717l349 -522v1044zM164 102h696l-348 523zM102 1239v-1044l349 522z" />
    <glyph glyph-name=".null" horiz-adv-x="0" 
 />
    <glyph glyph-name="nonmarkingreturn" horiz-adv-x="682" 
 />
    <glyph glyph-name="space" unicode=" " horiz-adv-x="589" 
 />
    <glyph glyph-name="exclam" unicode="!" horiz-adv-x="659" 
d="M461 457h-262l-45 1018h352zM141 170q0 79 55 134.5t136 55.5q78 0 134 -56t56 -134q0 -81 -55.5 -135.5t-134.5 -54.5q-82 0 -136.5 54t-54.5 136z" />
    <glyph glyph-name="quotedbl" unicode="&#x22;" horiz-adv-x="925" 
d="M508 1448v25h301v-25l-39 -455h-227zM119 1448v25h301v-25l-39 -455h-227z" />
    <glyph glyph-name="numbersign" unicode="#" horiz-adv-x="1476" 
d="M551 0h-295l31 313h-189v250h211l33 324h-211v250h234l32 336h297l-32 -336h225l33 336h292l-32 -336h198v-250h-223l-31 -324h222v-250h-246l-31 -313h-293l31 313h-225zM831 563l31 324h-225l-31 -324h225z" />
    <glyph glyph-name="dollar" unicode="$" horiz-adv-x="1419" 
d="M580 1741h274v-254q259 -28 451 -111l-88 -264q-95 50 -235 83.5t-284 33.5q-137 0 -212.5 -40.5t-75.5 -115.5q0 -27 10 -48.5t34 -39t50 -30.5t72.5 -26.5t87 -22.5t106.5 -23q148 -30 248.5 -65t179.5 -87t116.5 -126t37.5 -175q0 -185 -133.5 -301t-364.5 -141v-289
h-274v289q-266 24 -506 121l78 274q288 -137 563 -137q309 0 309 155q0 70 -74.5 104t-300.5 81q-139 30 -237 65t-175.5 88t-116 128t-38.5 175q0 183 137 301.5t361 145.5v252z" />
    <glyph glyph-name="percent" unicode="%" horiz-adv-x="1662" 
d="M1270 1475h246l-1139 -1475h-246zM434 1495q151 0 258 -100t107 -238q0 -137 -107 -236.5t-258 -99.5t-257.5 99.5t-106.5 236.5q0 138 106.5 238t257.5 100zM1231 653q153 0 258.5 -99.5t105.5 -238.5t-105.5 -237t-258.5 -98t-259 98t-106 237q0 140 106 239t259 99z
M1231 174q53 0 89 38.5t36 102.5t-36 104t-89 40t-89 -40t-36 -104t36 -102.5t89 -38.5zM434 1016q53 0 89 38.5t36 102.5t-36 103.5t-89 39.5t-89 -39.5t-36 -103.5t36 -102.5t89 -38.5z" />
    <glyph glyph-name="ampersand" unicode="&#x26;" horiz-adv-x="1550" 
d="M645 242q128 0 234 73l-312 328q-55 -22 -104.5 -86t-48.5 -139q2 -78 64.5 -127t166.5 -49zM1178 0l-121 127q-203 -147 -461 -147q-148 0 -264 48t-183.5 139t-72.5 212q-4 82 22.5 157t74.5 132t101.5 99t114.5 73q-100 139 -100 268q0 166 136 276.5t339 110.5
q102 0 206.5 -28t170.5 -68l-78 -242q-46 28 -116 50t-140 22q-82 0 -131 -36t-49 -110q0 -72 47 -142t157 -183l226 -232q63 120 82 269h293q-38 -264 -181 -469l316 -326h-389z" />
    <glyph glyph-name="quotesingle" unicode="'" horiz-adv-x="536" 
d="M119 1448v25h301v-25l-39 -455h-227z" />
    <glyph glyph-name="parenleft" unicode="(" horiz-adv-x="749" 
d="M690 -92h-315q-60 89 -101.5 162.5t-85 178.5t-66 229.5t-22.5 266.5q0 109 16.5 212t41.5 182t64 161.5t73.5 140t81.5 126.5h313q-108 -170 -174.5 -390t-66.5 -432t65 -431.5t176 -405.5z" />
    <glyph glyph-name="parenright" unicode=")" horiz-adv-x="751" 
d="M61 -92h316q47 70 81 126.5t73 139t63 163t40.5 187t16.5 221.5q0 135 -22.5 256.5t-66.5 225t-85.5 178t-101.5 162.5h-314q108 -170 175 -390t67 -432t-65.5 -431.5t-176.5 -405.5z" />
    <glyph glyph-name="asterisk" unicode="*" horiz-adv-x="1021" 
d="M637 1094l258 67l59 -215l-268 -63l145 -232l-192 -129l-143 238l-174 -207l-170 139l178 211l-256 101l80 215l262 -109l22 291l228 -17z" />
    <glyph glyph-name="plus" unicode="+" 
d="M698 514v-360h-274v360h-322v270h322v355h274v-355h326v-270h-326z" />
    <glyph glyph-name="comma" unicode="," horiz-adv-x="610" 
d="M90 186q0 87 60 147t149 60q98 0 156.5 -66t58.5 -167q0 -103 -49 -203t-117.5 -170.5t-152.5 -124.5l-142 76q157 121 213 256q-76 8 -126 61.5t-50 130.5z" />
    <glyph glyph-name="hyphen" unicode="-" horiz-adv-x="874" 
d="M150 573v271h575v-271h-575z" />
    <glyph glyph-name="period" unicode="." horiz-adv-x="600" 
d="M92 190q0 87 60 146t149 59q87 0 148 -59.5t61 -145.5q0 -88 -61 -146t-148 -58q-90 0 -149.5 57.5t-59.5 146.5z" />
    <glyph glyph-name="slash" unicode="/" horiz-adv-x="966" 
d="M911 1475l-567 -1475h-289l568 1475h288z" />
    <glyph glyph-name="zero" unicode="0" horiz-adv-x="1556" 
d="M1458 731q0 -217 -78.5 -386t-233.5 -267t-366 -98q-212 0 -367.5 95t-235 262.5t-79.5 387.5q0 222 77.5 394.5t232.5 274t368 101.5q214 0 370 -100t234 -271t78 -393zM1114 731q0 228 -86 363t-254 135q-110 0 -187 -71.5t-111 -182.5t-34 -250q0 -226 84.5 -352.5
t253.5 -126.5q166 0 250 131t84 354z" />
    <glyph glyph-name="one" unicode="1" horiz-adv-x="823" 
d="M647 0v1513l-600 -94v-262l262 39v-1196h338z" />
    <glyph glyph-name="two" unicode="2" horiz-adv-x="1327" 
d="M70 0v211l534 473q125 111 170 180.5t45 153.5t-66 145.5t-192 61.5q-199 0 -430 -129l31 297q75 43 203.5 72.5t242.5 29.5q109 0 208.5 -30.5t178.5 -87t125.5 -146t46.5 -199.5q0 -134 -69.5 -249.5t-229.5 -243.5l-327 -263h735l-66 -276h-1140z" />
    <glyph glyph-name="three" unicode="3" horiz-adv-x="1359" 
d="M606 -20q-153 0 -303.5 37.5t-243.5 91.5l88 262q223 -121 443 -121q151 0 241.5 68.5t90.5 189.5q0 233 -375 233h-170l366 457h-630l55 277h1028v-181l-326 -338q182 -47 289 -160t107 -292q0 -159 -90.5 -280t-239 -182.5t-330.5 -61.5z" />
    <glyph glyph-name="four" unicode="4" horiz-adv-x="1409" 
d="M821 0v264h-782v230l854 981h240v-945h213l-56 -266h-157v-264h-312zM821 530v480l-420 -480h420z" />
    <glyph glyph-name="five" unicode="5" horiz-adv-x="1351" 
d="M1231 1475l-55 -277h-717l-23 -260q122 27 234 27q283 0 440.5 -125t157.5 -346q0 -157 -91 -275.5t-240 -178.5t-331 -60q-147 0 -297 37.5t-243 91.5l88 258q211 -117 432 -117q157 0 247.5 60t90.5 169q0 209 -344 209q-102 0 -224 -22t-204 -45l57 854h1022z" />
    <glyph glyph-name="six" unicode="6" horiz-adv-x="1443" 
d="M797 1495q124 0 257 -33t230 -84l-82 -256q-63 30 -110 49.5t-125.5 38.5t-149.5 19q-321 0 -375 -361q148 109 365 109q155 0 279 -53.5t199 -161.5t75 -254q0 -157 -85 -278.5t-229 -185.5t-321 -64q-302 0 -463.5 189t-161.5 515q0 174 47.5 322.5t135 257t220 170
t294.5 61.5zM737 719q-125 0 -201.5 -65t-76.5 -169q0 -106 78.5 -173.5t205.5 -67.5q126 0 201.5 66t75.5 175q0 78 -41 132t-103 78t-139 24z" />
    <glyph glyph-name="seven" unicode="7" horiz-adv-x="1241" 
d="M1204 1264l-643 -1264h-387l655 1188h-792l57 287h1110v-211z" />
    <glyph glyph-name="eight" unicode="8" horiz-adv-x="1466" 
d="M733 -20q-182 0 -327.5 56t-228.5 159.5t-83 236.5q0 127 72 216t186 138q-88 47 -147.5 124.5t-59.5 179.5q0 171 164.5 288t423.5 117t423.5 -117t164.5 -288q0 -102 -59.5 -179.5t-147.5 -124.5q114 -49 186 -138t72 -216q0 -133 -83 -236.5t-228.5 -159.5t-327.5 -56
zM733 246q133 0 217 54.5t84 148.5q0 96 -84 149t-217 53t-217 -53t-84 -149q0 -94 84 -148.5t217 -54.5zM733 918q119 0 185.5 43t66.5 112t-66.5 112.5t-185.5 43.5t-185.5 -43.5t-66.5 -112.5t66.5 -112t185.5 -43z" />
    <glyph glyph-name="nine" unicode="9" horiz-adv-x="1454" 
d="M631 -20q-134 0 -276 32.5t-238 83.5l82 260q211 -110 411 -110q175 0 276 89t128 277q-150 -108 -373 -108q-239 0 -392 124.5t-153 342.5q0 154 84.5 274.5t226.5 185t314 64.5q206 0 350 -87.5t214.5 -244.5t70.5 -372q0 -140 -30 -263t-91 -223.5t-147 -173
t-202.5 -112t-254.5 -39.5zM719 766q125 0 201.5 63.5t76.5 165.5q0 104 -79 171t-203 67q-128 0 -203.5 -65t-75.5 -173q0 -113 81.5 -171t201.5 -58z" />
    <glyph glyph-name="colon" unicode=":" horiz-adv-x="704" 
d="M143 190q0 87 60 146t149 59q87 0 148 -59.5t61 -145.5q0 -88 -61 -146t-148 -58q-90 0 -149.5 57.5t-59.5 146.5zM143 874q0 87 60 146t149 59q87 0 148 -59.5t61 -145.5q0 -88 -61 -146t-148 -58q-90 0 -149.5 57.5t-59.5 146.5z" />
    <glyph glyph-name="semicolon" unicode=";" horiz-adv-x="710" 
d="M145 186q0 87 60 147t149 60q98 0 156.5 -66t58.5 -167q0 -103 -49 -203t-117.5 -170.5t-152.5 -124.5l-141 76q157 121 213 256q-76 8 -126.5 61.5t-50.5 130.5zM143 874q0 87 60 146t149 59q87 0 148 -59.5t61 -145.5q0 -88 -61 -146t-148 -58q-90 0 -149.5 57.5
t-59.5 146.5z" />
    <glyph glyph-name="less" unicode="&#x3c;" 
d="M61 526l926 -348v293l-610 182l610 176v291l-926 -340v-254z" />
    <glyph glyph-name="equal" unicode="=" 
d="M111 1016h905v-271h-905v271zM111 545h905v-271h-905v271z" />
    <glyph glyph-name="greater" unicode="&#x3e;" 
d="M1065 526l-926 -348v293l611 182l-611 176v291l926 -340v-254z" />
    <glyph glyph-name="question" unicode="?" horiz-adv-x="1089" 
d="M66 1108l28 289q86 44 200.5 71t213.5 27q140 0 257 -52t188 -151t71 -225q0 -72 -24 -133t-62 -103t-84.5 -78.5t-93 -65.5t-84.5 -56.5t-62 -59t-24 -65.5q0 -25 6 -49h-256q-43 98 -43 157q0 61 39 112.5t94.5 88t111.5 71.5t95 78.5t39 92.5q0 77 -62.5 124.5
t-167.5 47.5q-97 0 -199.5 -36.5t-180.5 -84.5zM281 168q0 79 54.5 134.5t135.5 55.5q78 0 134.5 -56t56.5 -134q0 -81 -56 -136t-135 -55q-82 0 -136 54.5t-54 136.5z" />
    <glyph glyph-name="at" unicode="@" horiz-adv-x="1990" 
d="M1446 1087q-29 -155 -29 -333q0 -260 121 -260q45 0 80 85.5t35 239.5q0 162 -83 282t-224.5 181t-321.5 61q-137 0 -259 -50.5t-210 -138t-139 -212t-51 -266.5q0 -172 78.5 -306t217 -207t314.5 -73q119 0 209.5 18t185.5 60l-33 -281q-154 -63 -366 -63
q-176 0 -335.5 61.5t-279.5 170.5t-191 269.5t-71 346.5q0 196 69.5 369t191.5 298.5t299.5 198t383.5 72.5q187 0 350.5 -58.5t281 -161t185.5 -249t68 -316.5q0 -250 -106.5 -406.5t-286.5 -156.5q-84 0 -148 41t-102 113q-103 -154 -299 -154q-183 0 -304.5 129.5
t-121.5 315.5q0 120 59.5 223t158 162t210.5 59q180 0 281 -131q9 50 24 102zM797 707q0 -105 55.5 -171.5t144.5 -66.5q88 0 139.5 66t51.5 172q0 105 -54 170t-143 65q-88 0 -141 -65t-53 -170z" />
    <glyph glyph-name="A" unicode="A" horiz-adv-x="1613" 
d="M1085 1225q-137 -123 -271.5 -302.5t-244.5 -379.5h531v682h-15zM332 0h-326q104 331 298.5 664.5t410.5 552.5h-422l90 258h1055v-1475h-338v285h-660q-65 -144 -108 -285z" />
    <glyph glyph-name="B" unicode="B" horiz-adv-x="1634" 
d="M176 0v1475h764q142 0 261.5 -49t190 -137t70.5 -195q0 -87 -71 -165t-160 -118q323 -106 323 -369q0 -139 -87.5 -241.5t-223 -151.5t-297.5 -49h-770zM514 266h395q129 0 218.5 53t89.5 144q0 88 -84.5 129t-221.5 41h-397v-367zM514 889h352q116 0 188 43t72 127
q0 57 -69 103t-166 46h-377v-319z" />
    <glyph glyph-name="C" unicode="C" horiz-adv-x="1517" 
d="M944 -20q-130 0 -255.5 32t-233.5 94.5t-190.5 147.5t-129.5 197.5t-47 238.5q0 147 45.5 276t126 224.5t186.5 165t230 104.5t254 35q129 0 279.5 -27.5t256.5 -70.5l-86 -271q-211 93 -434 93q-211 0 -360.5 -144t-149.5 -350q0 -139 74.5 -248t192.5 -165t255 -56
q130 0 236.5 26.5t230.5 82.5l-32 -295q-77 -37 -204 -63.5t-245 -26.5z" />
    <glyph glyph-name="D" unicode="D" horiz-adv-x="1734" 
d="M176 0v1475h578q137 0 266.5 -28.5t243 -87.5t198.5 -142t134 -200.5t49 -254.5q0 -180 -72.5 -326.5t-196 -240.5t-283.5 -144.5t-339 -50.5h-578zM514 270h219q249 0 406 135t157 357q0 139 -77.5 241t-203.5 151.5t-282 49.5h-219v-934z" />
    <glyph glyph-name="E" unicode="E" horiz-adv-x="1560" 
d="M989 -20q-147 0 -281 30t-247 90.5t-196 145.5t-130 201t-47 251q0 172 67 321t182 253t272 163.5t333 59.5q298 0 545 -100l-88 -262q-184 92 -438 92q-197 0 -337 -100.5t-186 -272.5h754l-35 -256h-723q34 -162 186 -254t384 -92q113 0 240.5 26t219.5 60l-32 -285
q-81 -29 -204.5 -50t-238.5 -21z" />
    <glyph glyph-name="F" unicode="F" horiz-adv-x="1413" 
d="M176 1475h1231l-61 -271h-832v-389h602l-49 -270h-553v-545h-338v1475z" />
    <glyph glyph-name="G" unicode="G" horiz-adv-x="1841" 
d="M954 -20q-169 0 -325.5 52t-276.5 144t-192 228.5t-72 295.5q0 168 68.5 317t183.5 253t271.5 164.5t328.5 60.5q159 0 318.5 -33t267.5 -84l-80 -264q-85 47 -217 79t-271 32q-106 0 -202.5 -39t-166.5 -106t-111.5 -159.5t-41.5 -195.5q0 -135 74.5 -245.5t194.5 -170
t256 -59.5q196 0 323.5 85t147.5 234h-510l45 258h784q16 -67 16 -149q0 -141 -54.5 -266.5t-155.5 -222t-257 -153t-346 -56.5z" />
    <glyph glyph-name="H" unicode="H" horiz-adv-x="1722" 
d="M176 0v1475h338v-582h694v582h338v-1475h-338v616h-694v-616h-338z" />
    <glyph glyph-name="I" unicode="I" horiz-adv-x="690" 
d="M514 1475v-1475h-338v1475h338z" />
    <glyph glyph-name="J" unicode="J" horiz-adv-x="1024" 
d="M379 -20q-71 0 -157 18t-159 51l-36 289q73 -41 157.5 -63.5t157.5 -22.5q180 0 180 266v957h338v-945q0 -550 -481 -550z" />
    <glyph glyph-name="K" unicode="K" horiz-adv-x="1607" 
d="M1622 0h-424l-450 602l-234 -242v-360h-338v1475h338v-709l655 709h426l-622 -641z" />
    <glyph glyph-name="L" unicode="L" horiz-adv-x="1312" 
d="M176 0v1475h338v-1205h786l-65 -270h-1059z" />
    <glyph glyph-name="M" unicode="M" horiz-adv-x="2013" 
d="M176 0v1475h293l555 -566l502 566h311v-1475h-338v870l6 156l-495 -555l-521 528l5 -168v-831h-318z" />
    <glyph glyph-name="N" unicode="N" horiz-adv-x="1808" 
d="M176 0v1475h285l854 -967v967h317v-1475h-289l-849 954v-954h-318z" />
    <glyph glyph-name="O" unicode="O" horiz-adv-x="1863" 
d="M934 -20q-136 0 -263 35t-232.5 101.5t-184 156.5t-122.5 206.5t-44 245.5q0 162 67 305.5t180.5 245t268.5 160.5t326 59q172 0 327.5 -58t269.5 -158.5t181.5 -243t67.5 -304.5q0 -127 -43.5 -243.5t-122 -208t-182.5 -159.5t-231.5 -104t-262.5 -36zM934 250
q136 0 248.5 60t178.5 171t66 250q0 143 -67 257t-181 175.5t-251 61.5q-134 0 -248 -69t-179 -184t-65 -247q0 -143 67 -252t179.5 -166t251.5 -57z" />
    <glyph glyph-name="P" unicode="P" horiz-adv-x="1511" 
d="M176 0v1475h631q132 0 248.5 -32.5t207 -94t143 -158.5t52.5 -217q0 -159 -91 -278t-237 -177.5t-323 -58.5h-293v-459h-338zM514 725h272q148 0 236 65t88 181q0 109 -88 173t-236 64h-272v-483z" />
    <glyph glyph-name="Q" unicode="Q" horiz-adv-x="1863" 
d="M1714 14l-2 -311q-128 24 -275 110t-245 201q-121 -34 -258 -34q-136 0 -263 35t-232.5 101.5t-184 156.5t-122.5 206.5t-44 245.5q0 162 67 305.5t180.5 245t268.5 160.5t326 59q172 0 327.5 -58t269.5 -158.5t181.5 -243t67.5 -304.5q0 -180 -84.5 -333t-231.5 -257
q127 -108 254 -127zM934 250q136 0 248.5 60t178.5 171t66 250q0 143 -67 257t-181 175.5t-251 61.5q-134 0 -248 -69t-179 -184t-65 -247q0 -143 67 -252t179.5 -166t251.5 -57z" />
    <glyph glyph-name="R" unicode="R" horiz-adv-x="1630" 
d="M176 0v1475h670q92 0 179.5 -20t166 -61t138 -99.5t94 -141.5t34.5 -180q0 -154 -80.5 -265.5t-216.5 -175.5l455 -532h-438l-367 459h-297v-459h-338zM514 725h262q90 0 164 26t122 81t48 131q0 121 -91.5 183t-232.5 62h-272v-483z" />
    <glyph glyph-name="S" unicode="S" horiz-adv-x="1523" 
d="M90 109l78 280q292 -139 606 -139q167 0 257.5 47.5t90.5 118.5q0 25 -8.5 43.5t-31.5 34t-53 26.5t-84 22.5t-112 20.5t-149 21q-303 41 -444.5 150t-141.5 296q0 138 85.5 244.5t235 163.5t339.5 57q153 0 341 -35.5t300 -83.5l-88 -268q-93 49 -249.5 83t-311.5 34
t-241.5 -47.5t-86.5 -116.5q0 -72 87 -107t320 -69q331 -47 474 -148t143 -286q0 -142 -86.5 -249.5t-238 -164.5t-345.5 -57q-161 0 -356 36.5t-330 92.5z" />
    <glyph glyph-name="T" unicode="T" horiz-adv-x="1359" 
d="M520 0v1198h-491v277h1331l-53 -277h-449v-1198h-338z" />
    <glyph glyph-name="U" unicode="U" horiz-adv-x="1691" 
d="M848 -20q-314 0 -503 176t-189 483v836h338v-816q0 -185 96 -289t270 -104q173 0 266 103.5t93 289.5v816h317v-836q0 -203 -88.5 -353.5t-243.5 -228t-356 -77.5z" />
    <glyph glyph-name="V" unicode="V" horiz-adv-x="1613" 
d="M692 0l-694 1475h371l462 -1041l461 1041h324l-694 -1475h-230z" />
    <glyph glyph-name="W" unicode="W" horiz-adv-x="2396" 
d="M1571 0l-369 999l-368 -999h-240l-592 1475h363l378 -1012l371 1012h238l368 -1010l363 1010h303l-576 -1475h-239z" />
    <glyph glyph-name="X" unicode="X" horiz-adv-x="1626" 
d="M795 535l-428 -535h-377l624 737l-600 738h435l385 -504l395 504h379l-592 -711l624 -764h-432z" />
    <glyph glyph-name="Y" unicode="Y" horiz-adv-x="1650" 
d="M676 2v553l-672 920h387l455 -639l448 639h346l-663 -918v-555h-301z" />
    <glyph glyph-name="Z" unicode="Z" horiz-adv-x="1488" 
d="M78 0v233l858 971h-825v271h1273v-234l-870 -971h891v-270h-1327z" />
    <glyph glyph-name="bracketleft" unicode="[" horiz-adv-x="790" 
d="M176 1569h510v-250h-182v-1161h182v-250h-510v1661z" />
    <glyph glyph-name="backslash" unicode="\" horiz-adv-x="993" 
d="M53 1475l568 -1475h319l-567 1475h-320z" />
    <glyph glyph-name="bracketright" unicode="]" horiz-adv-x="790" 
d="M614 1569h-510v-250h183v-1161h-183v-250h510v1661z" />
    <glyph glyph-name="asciicircum" unicode="^" 
d="M563 1159h-8l-178 -393h-309l364 727h256l373 -727h-309z" />
    <glyph glyph-name="underscore" unicode="_" horiz-adv-x="1228" 
d="M0 -344h1229v270h-1229v-270z" />
    <glyph glyph-name="grave" unicode="`" horiz-adv-x="1536" 
d="M1118 1595l-266 387h-375l381 -387h260z" />
    <glyph glyph-name="a" unicode="a" horiz-adv-x="1613" 
d="M1085 1225q-137 -123 -271.5 -302.5t-244.5 -379.5h531v682h-15zM332 0h-326q104 331 298.5 664.5t410.5 552.5h-422l90 258h1055v-1475h-338v285h-660q-65 -144 -108 -285z" />
    <glyph glyph-name="b" unicode="b" horiz-adv-x="1634" 
d="M176 0v1475h764q142 0 261.5 -49t190 -137t70.5 -195q0 -87 -71 -165t-160 -118q323 -106 323 -369q0 -139 -87.5 -241.5t-223 -151.5t-297.5 -49h-770zM514 266h395q129 0 218.5 53t89.5 144q0 88 -84.5 129t-221.5 41h-397v-367zM514 889h352q116 0 188 43t72 127
q0 57 -69 103t-166 46h-377v-319z" />
    <glyph glyph-name="c" unicode="c" horiz-adv-x="1517" 
d="M944 -20q-130 0 -255.5 32t-233.5 94.5t-190.5 147.5t-129.5 197.5t-47 238.5q0 147 45.5 276t126 224.5t186.5 165t230 104.5t254 35q129 0 279.5 -27.5t256.5 -70.5l-86 -271q-211 93 -434 93q-211 0 -360.5 -144t-149.5 -350q0 -139 74.5 -248t192.5 -165t255 -56
q130 0 236.5 26.5t230.5 82.5l-32 -295q-77 -37 -204 -63.5t-245 -26.5z" />
    <glyph glyph-name="d" unicode="d" horiz-adv-x="1734" 
d="M176 0v1475h578q137 0 266.5 -28.5t243 -87.5t198.5 -142t134 -200.5t49 -254.5q0 -180 -72.5 -326.5t-196 -240.5t-283.5 -144.5t-339 -50.5h-578zM514 270h219q249 0 406 135t157 357q0 139 -77.5 241t-203.5 151.5t-282 49.5h-219v-934z" />
    <glyph glyph-name="e" unicode="e" horiz-adv-x="1560" 
d="M989 -20q-147 0 -281 30t-247 90.5t-196 145.5t-130 201t-47 251q0 172 67 321t182 253t272 163.5t333 59.5q298 0 545 -100l-88 -262q-184 92 -438 92q-197 0 -337 -100.5t-186 -272.5h754l-35 -256h-723q34 -162 186 -254t384 -92q113 0 240.5 26t219.5 60l-32 -285
q-81 -29 -204.5 -50t-238.5 -21z" />
    <glyph glyph-name="f" unicode="f" horiz-adv-x="1413" 
d="M176 1475h1231l-61 -271h-832v-389h602l-49 -270h-553v-545h-338v1475z" />
    <glyph glyph-name="g" unicode="g" horiz-adv-x="1841" 
d="M954 -20q-169 0 -325.5 52t-276.5 144t-192 228.5t-72 295.5q0 168 68.5 317t183.5 253t271.5 164.5t328.5 60.5q159 0 318.5 -33t267.5 -84l-80 -264q-85 47 -217 79t-271 32q-106 0 -202.5 -39t-166.5 -106t-111.5 -159.5t-41.5 -195.5q0 -135 74.5 -245.5t194.5 -170
t256 -59.5q196 0 323.5 85t147.5 234h-510l45 258h784q16 -67 16 -149q0 -141 -54.5 -266.5t-155.5 -222t-257 -153t-346 -56.5z" />
    <glyph glyph-name="h" unicode="h" horiz-adv-x="1722" 
d="M176 0v1475h338v-582h694v582h338v-1475h-338v616h-694v-616h-338z" />
    <glyph glyph-name="i" unicode="i" horiz-adv-x="690" 
d="M514 1475v-1475h-338v1475h338z" />
    <glyph glyph-name="j" unicode="j" horiz-adv-x="1024" 
d="M379 -20q-71 0 -157 18t-159 51l-36 289q73 -41 157.5 -63.5t157.5 -22.5q180 0 180 266v957h338v-945q0 -550 -481 -550z" />
    <glyph glyph-name="k" unicode="k" horiz-adv-x="1607" 
d="M1622 0h-424l-450 602l-234 -242v-360h-338v1475h338v-709l655 709h426l-622 -641z" />
    <glyph glyph-name="l" unicode="l" horiz-adv-x="1312" 
d="M176 0v1475h338v-1205h786l-65 -270h-1059z" />
    <glyph glyph-name="m" unicode="m" horiz-adv-x="2013" 
d="M176 0v1475h293l555 -566l502 566h311v-1475h-338v870l6 156l-495 -555l-521 528l5 -168v-831h-318z" />
    <glyph glyph-name="n" unicode="n" horiz-adv-x="1808" 
d="M176 0v1475h285l854 -967v967h317v-1475h-289l-849 954v-954h-318z" />
    <glyph glyph-name="o" unicode="o" horiz-adv-x="1863" 
d="M934 -20q-136 0 -263 35t-232.5 101.5t-184 156.5t-122.5 206.5t-44 245.5q0 162 67 305.5t180.5 245t268.5 160.5t326 59q172 0 327.5 -58t269.5 -158.5t181.5 -243t67.5 -304.5q0 -127 -43.5 -243.5t-122 -208t-182.5 -159.5t-231.5 -104t-262.5 -36zM934 250
q136 0 248.5 60t178.5 171t66 250q0 143 -67 257t-181 175.5t-251 61.5q-134 0 -248 -69t-179 -184t-65 -247q0 -143 67 -252t179.5 -166t251.5 -57z" />
    <glyph glyph-name="p" unicode="p" horiz-adv-x="1511" 
d="M176 0v1475h631q132 0 248.5 -32.5t207 -94t143 -158.5t52.5 -217q0 -159 -91 -278t-237 -177.5t-323 -58.5h-293v-459h-338zM514 725h272q148 0 236 65t88 181q0 109 -88 173t-236 64h-272v-483z" />
    <glyph glyph-name="q" unicode="q" horiz-adv-x="1863" 
d="M1714 14l-2 -311q-128 24 -275 110t-245 201q-121 -34 -258 -34q-136 0 -263 35t-232.5 101.5t-184 156.5t-122.5 206.5t-44 245.5q0 162 67 305.5t180.5 245t268.5 160.5t326 59q172 0 327.5 -58t269.5 -158.5t181.5 -243t67.5 -304.5q0 -180 -84.5 -333t-231.5 -257
q127 -108 254 -127zM934 250q136 0 248.5 60t178.5 171t66 250q0 143 -67 257t-181 175.5t-251 61.5q-134 0 -248 -69t-179 -184t-65 -247q0 -143 67 -252t179.5 -166t251.5 -57z" />
    <glyph glyph-name="r" unicode="r" horiz-adv-x="1630" 
d="M176 0v1475h670q92 0 179.5 -20t166 -61t138 -99.5t94 -141.5t34.5 -180q0 -154 -80.5 -265.5t-216.5 -175.5l455 -532h-438l-367 459h-297v-459h-338zM514 725h262q90 0 164 26t122 81t48 131q0 121 -91.5 183t-232.5 62h-272v-483z" />
    <glyph glyph-name="s" unicode="s" horiz-adv-x="1523" 
d="M90 109l78 280q292 -139 606 -139q167 0 257.5 47.5t90.5 118.5q0 25 -8.5 43.5t-31.5 34t-53 26.5t-84 22.5t-112 20.5t-149 21q-303 41 -444.5 150t-141.5 296q0 138 85.5 244.5t235 163.5t339.5 57q153 0 341 -35.5t300 -83.5l-88 -268q-93 49 -249.5 83t-311.5 34
t-241.5 -47.5t-86.5 -116.5q0 -72 87 -107t320 -69q331 -47 474 -148t143 -286q0 -142 -86.5 -249.5t-238 -164.5t-345.5 -57q-161 0 -356 36.5t-330 92.5z" />
    <glyph glyph-name="t" unicode="t" horiz-adv-x="1359" 
d="M520 0v1198h-491v277h1331l-53 -277h-449v-1198h-338z" />
    <glyph glyph-name="u" unicode="u" horiz-adv-x="1691" 
d="M848 -20q-314 0 -503 176t-189 483v836h338v-816q0 -185 96 -289t270 -104q173 0 266 103.5t93 289.5v816h317v-836q0 -203 -88.5 -353.5t-243.5 -228t-356 -77.5z" />
    <glyph glyph-name="v" unicode="v" horiz-adv-x="1613" 
d="M692 0l-694 1475h371l462 -1041l461 1041h324l-694 -1475h-230z" />
    <glyph glyph-name="w" unicode="w" horiz-adv-x="2396" 
d="M1571 0l-369 999l-368 -999h-240l-592 1475h363l378 -1012l371 1012h238l368 -1010l363 1010h303l-576 -1475h-239z" />
    <glyph glyph-name="x" unicode="x" horiz-adv-x="1626" 
d="M795 535l-428 -535h-377l624 737l-600 738h435l385 -504l395 504h379l-592 -711l624 -764h-432z" />
    <glyph glyph-name="y" unicode="y" horiz-adv-x="1650" 
d="M676 2v553l-672 920h387l455 -639l448 639h346l-663 -918v-555h-301z" />
    <glyph glyph-name="z" unicode="z" horiz-adv-x="1488" 
d="M78 0v233l858 971h-825v271h1273v-234l-870 -971h891v-270h-1327z" />
    <glyph glyph-name="braceleft" unicode="{" horiz-adv-x="796" 
d="M84 614v250q66 6 91.5 51t25.5 160v117q0 193 98 285t330 92h63v-250h-33q-131 0 -131 -164v-145q0 -203 -186 -258v-13q94 -26 140 -87t46 -163v-145q0 -86 35 -136t99 -50h30v-250h-65q-227 0 -326.5 101.5t-99.5 297.5v96q0 115 -25.5 160t-91.5 51z" />
    <glyph glyph-name="bar" unicode="|" horiz-adv-x="638" 
d="M176 -410v1946h287v-1946h-287z" />
    <glyph glyph-name="braceright" unicode="}" horiz-adv-x="796" 
d="M713 614v250q-66 6 -91.5 51t-25.5 160v117q0 193 -98 285t-330 92h-64v-250h33q131 0 131 -164v-145q0 -203 187 -258v-13q-187 -52 -187 -250v-145q0 -86 -34.5 -136t-98.5 -50h-31v-250h66q227 0 326.5 101.5t99.5 297.5v96q0 115 25.5 160t91.5 51z" />
    <glyph glyph-name="asciitilde" unicode="~" 
d="M991 866l43 -260q-44 -59 -126 -108t-148 -49q-56 0 -114 21.5t-98.5 48t-89.5 48t-89 21.5q-98 0 -242 -139l-35 251q54 62 134 115t167 53q55 0 110 -21.5t92.5 -48t83.5 -48t85 -21.5q94 0 227 137z" />
    <glyph glyph-name="uni00A0" unicode="&#xa0;" horiz-adv-x="589" 
 />
    <glyph glyph-name="exclamdown" unicode="&#xa1;" horiz-adv-x="659" 
d="M199 1018h262l45 -1018h-352zM518 1305q0 -79 -54.5 -135t-135.5 -56q-78 0 -134.5 56.5t-56.5 134.5q0 81 56 135.5t135 54.5q82 0 136 -54t54 -136z" />
    <glyph glyph-name="cent" unicode="&#xa2;" horiz-adv-x="1067" 
d="M956 541l-36 -271q-77 -24 -193 -39v-231h-246v238q-176 40 -286.5 171t-110.5 322q0 203 110.5 339.5t286.5 174.5v230h248v-226q175 -15 262 -49l-69 -258q-36 14 -112.5 28.5t-127.5 14.5q-114 0 -192 -66.5t-78 -173.5q0 -108 78.5 -175.5t191.5 -67.5q101 0 274 39z
" />
    <glyph glyph-name="sterling" unicode="&#xa3;" horiz-adv-x="1370" 
d="M1143 821v-270h-463q-13 -83 -58 -146t-130 -135h788v-270h-1182v221q104 63 173.5 148t95.5 182h-246v270h209q-22 50 -32.5 75.5t-22 74.5t-11.5 94q0 121 66.5 220t179.5 154.5t248 55.5q276 0 514 -94l-86 -264q-65 36 -172.5 62t-190.5 26q-97 0 -156 -56t-59 -133
q0 -19 2 -39t4 -35t7 -37.5t7.5 -33t9.5 -36.5t9 -34h496z" />
    <glyph glyph-name="yen" unicode="&#xa5;" horiz-adv-x="1579" 
d="M643 2v330h-389v198h389v25l-49 78h-340v198h211l-412 644h387l373 -639l367 639h346l-408 -644h205v-198h-330l-49 -78v-25h379v-198h-379v-330h-301z" />
    <glyph glyph-name="brokenbar" unicode="&#xa6;" horiz-adv-x="630" 
d="M172 -410v779h287v-779h-287zM172 799v737h287v-737h-287z" />
    <glyph glyph-name="section" unicode="&#xa7;" horiz-adv-x="1275" 
d="M649 639q48 -13 115 -37q60 9 91.5 36.5t31.5 63.5q0 41 -48.5 64.5t-193.5 64.5q-19 6 -59.5 17.5t-59.5 17.5q-56 -9 -87 -37t-31 -65q0 -39 40 -58.5t171 -57.5q19 -6 30 -9zM604 -23q-145 0 -283 30t-233 75l62 244q238 -99 456 -99q182 0 182 68q0 13 -6.5 23.5
t-21.5 19.5t-29.5 15.5t-42.5 13.5l-48 12t-57.5 13.5t-60.5 13.5q-100 24 -170.5 49.5t-127 61t-84 84t-27.5 110.5q0 85 51 151t143 105q-117 83 -117 211q0 141 126.5 228t338.5 87q124 0 268.5 -28.5t233.5 -67.5l-61 -244q-230 90 -428 90q-162 0 -162 -67
q0 -13 5.5 -23t19 -18.5t28 -14.5t40.5 -13.5t48 -12.5t59.5 -13.5t65.5 -15.5q219 -55 314.5 -125.5t95.5 -181.5q0 -87 -53 -154t-148 -106q123 -88 123 -217q0 -138 -131 -221t-369 -83z" />
    <glyph glyph-name="dieresis" unicode="&#xa8;" horiz-adv-x="1173" 
d="M109 1763q0 76 53.5 130.5t132.5 54.5q75 0 129.5 -55t54.5 -130q0 -77 -54 -130.5t-130 -53.5q-79 0 -132.5 53t-53.5 131zM682 1763q0 76 53.5 130.5t130.5 54.5q76 0 131.5 -55t55.5 -130q0 -77 -55 -130.5t-132 -53.5q-78 0 -131 53t-53 131z" />
    <glyph glyph-name="copyright" unicode="&#xa9;" horiz-adv-x="1599" 
d="M92 682q0 147 57.5 277.5t154 221.5t226.5 144t271 53q140 0 269 -53t225.5 -144t154 -221.5t57.5 -277.5q0 -149 -57.5 -280t-154 -222t-225.5 -143.5t-269 -52.5q-142 0 -271.5 52.5t-226 143.5t-154 222t-57.5 280zM289 682q0 -150 68.5 -270t185 -185t258.5 -65
q138 0 254 65t186 185t70 270t-70 269.5t-186 184t-254 64.5q-142 0 -258.5 -64.5t-185 -184t-68.5 -269.5zM1036 557l-22 -221q-36 -23 -94.5 -39t-118.5 -16q-156 0 -264.5 109t-108.5 284q0 176 110 283.5t275 107.5q124 0 246 -49l-70 -201q-68 31 -149 31
q-77 0 -130 -44.5t-53 -123.5q0 -74 53 -126t130 -52q97 0 196 57z" />
    <glyph glyph-name="ordfeminine" unicode="&#xaa;" horiz-adv-x="1124" 
d="M1071 553h-268l-62 156h-379l-71 -156h-244l438 922h185zM664 901l-101 250l-114 -250h215z" />
    <glyph glyph-name="guillemotleft" unicode="&#xab;" horiz-adv-x="1280" 
d="M328 1024l-242 -399l242 -400h321l-215 400l215 399h-321zM819 1024l-241 -399l241 -400h322l-215 400l215 399h-322z" />
    <glyph glyph-name="logicalnot" unicode="&#xac;" 
d="M86 535v270h922v-578h-275v308h-647z" />
    <glyph glyph-name="registered" unicode="&#xae;" horiz-adv-x="1599" 
d="M1141 338h-230l-112 221h-82v-221h-205v711h309q120 0 200.5 -69t80.5 -183q0 -74 -29.5 -131t-77.5 -82zM717 711h98q30 0 52 24.5t22 55.5t-22.5 54t-51.5 23h-98v-157zM92 682q0 147 57.5 277.5t154 221.5t226.5 144t271 53q140 0 269 -53t225.5 -144t154 -221.5
t57.5 -277.5q0 -149 -57.5 -280t-154 -222t-225.5 -143.5t-269 -52.5q-142 0 -271.5 52.5t-226 143.5t-154 222t-57.5 280zM291 682q0 -227 146.5 -372.5t363.5 -145.5q215 0 361.5 145.5t146.5 372.5q0 149 -68 268t-183.5 183.5t-256.5 64.5q-142 0 -258 -64.5
t-184 -183.5t-68 -268z" />
    <glyph glyph-name="macron" unicode="&#xaf;" horiz-adv-x="1075" 
d="M123 1638v271h827v-271h-827z" />
    <glyph glyph-name="degree" unicode="&#xb0;" horiz-adv-x="823" 
d="M90 1114q0 135 92.5 229.5t227.5 94.5t229 -94.5t94 -229.5q0 -133 -94 -226t-229 -93t-227.5 92t-92.5 227zM279 1114q0 -58 37.5 -97.5t93.5 -39.5q57 0 96 40t39 97q0 58 -39.5 99.5t-95.5 41.5t-93.5 -41.5t-37.5 -99.5z" />
    <glyph glyph-name="plusminus" unicode="&#xb1;" 
d="M698 682v-217h-274v217h-322v270h322v252h274v-252h326v-270h-326zM1024 109h-922v270h922v-270z" />
    <glyph glyph-name="twosuperior" unicode="&#xb2;" horiz-adv-x="983" 
d="M127 621v159l295 230q129 100 129 186q0 94 -119 94q-57 0 -135 -26.5t-152 -69.5l21 225q55 32 141 54t170 22q151 0 249.5 -72.5t98.5 -199.5q0 -98 -56 -176.5t-185 -165.5l-82 -56h381l-49 -204h-707z" />
    <glyph glyph-name="threesuperior" unicode="&#xb3;" horiz-adv-x="954" 
d="M467 604q-217 0 -369 78l66 199q123 -70 262 -70q156 0 156 107q0 102 -187 102h-110l223 250h-371l45 205h629v-162l-182 -166q107 -28 167 -94t60 -160q0 -87 -54 -154t-141.5 -101t-193.5 -34z" />
    <glyph glyph-name="acute" unicode="&#xb4;" horiz-adv-x="1536" 
d="M475 1595l266 387h375l-381 -387h-260z" />
    <glyph glyph-name="paragraph" unicode="&#xb6;" 
d="M621 444h-43q-155 0 -284 63.5t-205.5 182.5t-76.5 271q0 114 45 211t121.5 163t180 103t219.5 37h485v-271h-115v-1296h-327v536z" />
    <glyph glyph-name="periodcentered" unicode="&#xb7;" horiz-adv-x="641" 
d="M113 702q0 87 60 146t149 59q87 0 147.5 -59.5t60.5 -145.5q0 -88 -60.5 -146t-147.5 -58q-90 0 -149.5 57.5t-59.5 146.5z" />
    <glyph glyph-name="cedilla" unicode="&#xb8;" horiz-adv-x="0" 
d="M-135 45h211l-72 -149q197 -13 297 -89t100 -200q0 -96 -55 -164.5t-140.5 -100.5t-189.5 -32q-132 0 -252 35l-43 194q110 -39 236 -39q158 0 158 82q0 58 -86.5 82.5t-286.5 24.5z" />
    <glyph glyph-name="onesuperior" unicode="&#xb9;" horiz-adv-x="661" 
d="M510 621h-256v639l-182 -31v211l438 73v-892z" />
    <glyph glyph-name="ordmasculine" unicode="&#xba;" horiz-adv-x="1198" 
d="M1118 1018q0 -132 -69.5 -240t-188 -168.5t-260.5 -60.5t-260.5 58.5t-189 165.5t-70.5 241q0 135 69 245.5t187.5 173t261.5 62.5t262 -61.5t188.5 -171.5t69.5 -244zM856 1018q0 116 -73 192t-187 76q-104 0 -179 -80.5t-75 -191.5q0 -113 71.5 -184.5t186.5 -71.5
q112 0 184 73.5t72 186.5z" />
    <glyph glyph-name="guillemotright" unicode="&#xbb;" horiz-adv-x="1280" 
d="M461 1024l241 -399l-241 -400h-322l215 400l-215 399h322zM952 1024l242 -399l-242 -400h-321l215 400l-215 399h321z" />
    <glyph glyph-name="onequarter" unicode="&#xbc;" horiz-adv-x="2011" 
d="M508 621h-256v639l-182 -31v211l438 73v-892zM1520 1475l-924 -1475h-260l911 1475h273zM1552 0v131h-475v188l496 535h221v-532h158l-47 -191h-111v-131h-242zM1552 322v247l-235 -247h235z" />
    <glyph glyph-name="onehalf" unicode="&#xbd;" horiz-adv-x="2029" 
d="M502 621h-256v639l-183 -31v211l439 73v-892zM1210 2v160l295 229q129 100 129 187q0 94 -118 94q-57 0 -134.5 -27t-152.5 -70l20 226q55 32 141 54t171 22q151 0 249.5 -73t98.5 -200q0 -98 -56 -176t-186 -166l-82 -55h381l-49 -205h-707zM1513 1475l-923 -1475h-260
l911 1475h272z" />
    <glyph glyph-name="threequarters" unicode="&#xbe;" horiz-adv-x="2179" 
d="M446 604q-216 0 -368 78l65 199q123 -70 263 -70q155 0 155 107q0 102 -186 102h-111l223 250h-370l45 205h629v-162l-183 -166q107 -28 167.5 -94t60.5 -160q0 -87 -54 -154t-142 -101t-194 -34zM1688 1475l-924 -1475h-260l911 1475h273zM1720 0v131h-475v188l496 535
h221v-532h158l-47 -191h-111v-131h-242zM1720 322v247l-235 -247h235z" />
    <glyph glyph-name="questiondown" unicode="&#xbf;" horiz-adv-x="1087" 
d="M1022 365l-29 -289q-86 -44 -200.5 -71.5t-212.5 -27.5q-104 0 -198.5 31t-165 85.5t-112 136t-41.5 176.5q0 72 24 133t62.5 103t84.5 78.5t92.5 65.5t85 56.5t62.5 59t24 65.5q0 25 -6 49h256q43 -98 43 -158q0 -52 -28 -97t-70 -76t-91.5 -63.5t-91.5 -60t-70 -65.5
t-28 -80q0 -77 62 -124.5t167 -47.5q97 0 200 37t181 84zM807 1305q0 -79 -55 -135t-136 -56q-78 0 -134 56.5t-56 134.5q0 81 55.5 135.5t134.5 54.5q82 0 136.5 -54t54.5 -136z" />
    <glyph glyph-name="Agrave" unicode="&#xc0;" horiz-adv-x="1613" 
d="M1085 1225q-137 -123 -271.5 -302.5t-244.5 -379.5h531v682h-15zM332 0h-326q104 331 298.5 664.5t410.5 552.5h-422l90 258h1055v-1475h-338v285h-660q-65 -144 -108 -285zM1004 1595l-381 387h374l267 -387h-260z" />
    <glyph glyph-name="Aacute" unicode="&#xc1;" horiz-adv-x="1613" 
d="M1085 1225q-137 -123 -271.5 -302.5t-244.5 -379.5h531v682h-15zM332 0h-326q104 331 298.5 664.5t410.5 552.5h-422l90 258h1055v-1475h-338v285h-660q-65 -144 -108 -285zM924 1595l266 387h375l-381 -387h-260z" />
    <glyph glyph-name="Acircumflex" unicode="&#xc2;" horiz-adv-x="1613" 
d="M1085 1225q-137 -123 -271.5 -302.5t-244.5 -379.5h531v682h-15zM332 0h-326q104 331 298.5 664.5t410.5 552.5h-422l90 258h1055v-1475h-338v285h-660q-65 -144 -108 -285zM1006 1985h190l406 -390h-349l-153 185l-148 -185h-352z" />
    <glyph glyph-name="Atilde" unicode="&#xc3;" horiz-adv-x="1613" 
d="M1085 1225q-137 -123 -271.5 -302.5t-244.5 -379.5h531v682h-15zM332 0h-326q104 331 298.5 664.5t410.5 552.5h-422l90 258h1055v-1475h-338v285h-660q-65 -144 -108 -285zM1442 2005l43 -236q-46 -62 -121 -112.5t-139 -50.5q-49 0 -102 21.5t-90.5 48t-81.5 48
t-77 21.5q-89 0 -229 -135l-35 227q150 174 289 174q48 0 98 -21.5t84 -48t75 -48t73 -21.5q54 0 105.5 36.5t107.5 96.5z" />
    <glyph glyph-name="Adieresis" unicode="&#xc4;" horiz-adv-x="1613" 
d="M1085 1225q-137 -123 -271.5 -302.5t-244.5 -379.5h531v682h-15zM332 0h-326q104 331 298.5 664.5t410.5 552.5h-422l90 258h1055v-1475h-338v285h-660q-65 -144 -108 -285zM629 1763q0 76 53.5 130.5t132.5 54.5q75 0 129.5 -55t54.5 -130q0 -77 -54 -130.5t-130 -53.5
q-79 0 -132.5 53t-53.5 131zM1202 1763q0 76 53.5 130.5t130.5 54.5q76 0 131.5 -55t55.5 -130q0 -77 -55 -130.5t-132 -53.5q-78 0 -131 53t-53 131z" />
    <glyph glyph-name="Aring" unicode="&#xc5;" horiz-adv-x="1613" 
d="M1085 1225q-137 -123 -271.5 -302.5t-244.5 -379.5h531v682h-15zM332 0h-326q104 331 298.5 664.5t410.5 552.5h-422l90 258h1055v-1475h-338v285h-660q-65 -144 -108 -285zM778 1886q0 132 95 228t227 96t227.5 -96t95.5 -228t-95.5 -226.5t-227.5 -94.5t-227 94.5
t-95 226.5zM969 1886q0 -56 37.5 -93.5t93.5 -37.5t93.5 37.5t37.5 93.5t-37.5 93.5t-93.5 37.5t-93.5 -37.5t-37.5 -93.5z" />
    <glyph glyph-name="AE" unicode="&#xc6;" horiz-adv-x="2467" 
d="M1075 1217q-135 -121 -267.5 -298t-242.5 -376h447q-17 83 -17 155q0 301 195 519h-115zM1896 -20q-238 0 -437.5 79t-319.5 226h-705q-65 -151 -106 -285h-326q104 331 298.5 664.5t410.5 552.5h-381l90 258h1229q94 20 200 20q298 0 545 -100l-88 -262q-184 92 -438 92
q-197 0 -336.5 -100.5t-185.5 -272.5h753l-35 -256h-725q34 -162 186.5 -254t385.5 -92q113 0 241.5 26t219.5 60l-33 -285q-81 -29 -204.5 -50t-238.5 -21z" />
    <glyph glyph-name="Ccedilla" unicode="&#xc7;" horiz-adv-x="1517" 
d="M666 -311l104 305q-139 24 -261.5 83.5t-216.5 147.5t-149 208.5t-55 256.5q0 147 45.5 276t126 224.5t186.5 165t230 104.5t254 35q129 0 279.5 -27.5t256.5 -70.5l-86 -271q-211 93 -434 93q-211 0 -360.5 -144t-149.5 -350q0 -139 74.5 -248t192.5 -165t255 -56
q130 0 236.5 26.5t230.5 82.5l-32 -295q-74 -35 -192 -61t-234 -29l-39 -84q197 -13 297 -89t100 -200q0 -96 -55 -164.5t-140.5 -100.5t-189.5 -32q-132 0 -252 35l-43 194q110 -39 236 -39q157 0 157 82q0 58 -86.5 82.5t-285.5 24.5z" />
    <glyph glyph-name="Egrave" unicode="&#xc8;" horiz-adv-x="1560" 
d="M989 -20q-147 0 -281 30t-247 90.5t-196 145.5t-130 201t-47 251q0 172 67 321t182 253t272 163.5t333 59.5q298 0 545 -100l-88 -262q-184 92 -438 92q-197 0 -337 -100.5t-186 -272.5h754l-35 -256h-723q34 -162 186 -254t384 -92q113 0 240.5 26t219.5 60l-32 -285
q-81 -29 -204.5 -50t-238.5 -21zM848 1595l-381 387h375l266 -387h-260z" />
    <glyph glyph-name="Eacute" unicode="&#xc9;" horiz-adv-x="1560" 
d="M989 -20q-147 0 -281 30t-247 90.5t-196 145.5t-130 201t-47 251q0 172 67 321t182 253t272 163.5t333 59.5q298 0 545 -100l-88 -262q-184 92 -438 92q-197 0 -337 -100.5t-186 -272.5h754l-35 -256h-723q34 -162 186 -254t384 -92q113 0 240.5 26t219.5 60l-32 -285
q-81 -29 -204.5 -50t-238.5 -21zM768 1595l266 387h375l-381 -387h-260z" />
    <glyph glyph-name="Ecircumflex" unicode="&#xca;" horiz-adv-x="1560" 
d="M989 -20q-147 0 -281 30t-247 90.5t-196 145.5t-130 201t-47 251q0 172 67 321t182 253t272 163.5t333 59.5q298 0 545 -100l-88 -262q-184 92 -438 92q-197 0 -337 -100.5t-186 -272.5h754l-35 -256h-723q34 -162 186 -254t384 -92q113 0 240.5 26t219.5 60l-32 -285
q-81 -29 -204.5 -50t-238.5 -21zM850 1985h190l406 -390h-348l-154 185l-147 -185h-353z" />
    <glyph glyph-name="Edieresis" unicode="&#xcb;" horiz-adv-x="1560" 
d="M989 -20q-147 0 -281 30t-247 90.5t-196 145.5t-130 201t-47 251q0 172 67 321t182 253t272 163.5t333 59.5q298 0 545 -100l-88 -262q-184 92 -438 92q-197 0 -337 -100.5t-186 -272.5h754l-35 -256h-723q34 -162 186 -254t384 -92q113 0 240.5 26t219.5 60l-32 -285
q-81 -29 -204.5 -50t-238.5 -21zM473 1763q0 76 53.5 130.5t132.5 54.5q75 0 130 -55t55 -130q0 -77 -54.5 -130.5t-130.5 -53.5q-79 0 -132.5 53t-53.5 131zM1047 1763q0 76 53.5 130.5t130.5 54.5q76 0 131 -55t55 -130q0 -77 -54.5 -130.5t-131.5 -53.5q-78 0 -131 53
t-53 131z" />
    <glyph glyph-name="Igrave" unicode="&#xcc;" horiz-adv-x="690" 
d="M514 1475v-1475h-338v1475h338zM264 1595l-381 387h375l266 -387h-260z" />
    <glyph glyph-name="Iacute" unicode="&#xcd;" horiz-adv-x="690" 
d="M514 1475v-1475h-338v1475h338zM143 1595l267 387h374l-381 -387h-260z" />
    <glyph glyph-name="Icircumflex" unicode="&#xce;" horiz-adv-x="690" 
d="M514 1475v-1475h-338v1475h338zM246 1985h190l406 -390h-348l-154 185l-147 -185h-353z" />
    <glyph glyph-name="Idieresis" unicode="&#xcf;" horiz-adv-x="690" 
d="M514 1475v-1475h-338v1475h338zM-131 1763q0 76 53.5 130.5t132.5 54.5q75 0 130 -55t55 -130q0 -77 -54.5 -130.5t-130.5 -53.5q-79 0 -132.5 53t-53.5 131zM442 1763q0 76 54 130.5t131 54.5q76 0 131 -55t55 -130q0 -77 -54.5 -130.5t-131.5 -53.5q-78 0 -131.5 53
t-53.5 131z" />
    <glyph glyph-name="Eth" unicode="&#xd0;" horiz-adv-x="1789" 
d="M231 0v596h-184v270h184v609h578q137 0 266.5 -28.5t243 -87.5t198.5 -142t134 -200.5t49 -254.5q0 -180 -72.5 -326.5t-196 -240.5t-283.5 -144.5t-339 -50.5h-578zM569 270h219q249 0 406.5 135t157.5 357q0 105 -45 190t-122 139.5t-179 83.5t-218 29h-219v-338h400
v-270h-400v-326z" />
    <glyph glyph-name="Ntilde" unicode="&#xd1;" horiz-adv-x="1808" 
d="M176 0v1475h285l854 -967v967h317v-1475h-289l-849 954v-954h-318zM1333 2005l43 -236q-46 -62 -121 -112.5t-139 -50.5q-49 0 -101.5 21.5t-90.5 48t-81.5 48t-76.5 21.5q-89 0 -229 -135l-35 227q150 174 289 174q48 0 97.5 -21.5t84 -48t75 -48t72.5 -21.5
q54 0 105.5 36.5t107.5 96.5z" />
    <glyph glyph-name="Ograve" unicode="&#xd2;" horiz-adv-x="1863" 
d="M934 -20q-136 0 -263 35t-232.5 101.5t-184 156.5t-122.5 206.5t-44 245.5q0 162 67 305.5t180.5 245t268.5 160.5t326 59q172 0 327.5 -58t269.5 -158.5t181.5 -243t67.5 -304.5q0 -127 -43.5 -243.5t-122 -208t-182.5 -159.5t-231.5 -104t-262.5 -36zM934 250
q136 0 248.5 60t178.5 171t66 250q0 143 -67 257t-181 175.5t-251 61.5q-134 0 -248 -69t-179 -184t-65 -247q0 -143 67 -252t179.5 -166t251.5 -57zM834 1595l-381 387h374l267 -387h-260z" />
    <glyph glyph-name="Oacute" unicode="&#xd3;" horiz-adv-x="1863" 
d="M934 -20q-136 0 -263 35t-232.5 101.5t-184 156.5t-122.5 206.5t-44 245.5q0 162 67 305.5t180.5 245t268.5 160.5t326 59q172 0 327.5 -58t269.5 -158.5t181.5 -243t67.5 -304.5q0 -127 -43.5 -243.5t-122 -208t-182.5 -159.5t-231.5 -104t-262.5 -36zM934 250
q136 0 248.5 60t178.5 171t66 250q0 143 -67 257t-181 175.5t-251 61.5q-134 0 -248 -69t-179 -184t-65 -247q0 -143 67 -252t179.5 -166t251.5 -57zM754 1595l266 387h375l-381 -387h-260z" />
    <glyph glyph-name="Ocircumflex" unicode="&#xd4;" horiz-adv-x="1863" 
d="M934 -20q-136 0 -263 35t-232.5 101.5t-184 156.5t-122.5 206.5t-44 245.5q0 162 67 305.5t180.5 245t268.5 160.5t326 59q172 0 327.5 -58t269.5 -158.5t181.5 -243t67.5 -304.5q0 -127 -43.5 -243.5t-122 -208t-182.5 -159.5t-231.5 -104t-262.5 -36zM934 250
q136 0 248.5 60t178.5 171t66 250q0 143 -67 257t-181 175.5t-251 61.5q-134 0 -248 -69t-179 -184t-65 -247q0 -143 67 -252t179.5 -166t251.5 -57zM836 1985h190l406 -390h-349l-153 185l-148 -185h-352z" />
    <glyph glyph-name="Otilde" unicode="&#xd5;" horiz-adv-x="1863" 
d="M934 -20q-136 0 -263 35t-232.5 101.5t-184 156.5t-122.5 206.5t-44 245.5q0 162 67 305.5t180.5 245t268.5 160.5t326 59q172 0 327.5 -58t269.5 -158.5t181.5 -243t67.5 -304.5q0 -127 -43.5 -243.5t-122 -208t-182.5 -159.5t-231.5 -104t-262.5 -36zM934 250
q136 0 248.5 60t178.5 171t66 250q0 143 -67 257t-181 175.5t-251 61.5q-134 0 -248 -69t-179 -184t-65 -247q0 -143 67 -252t179.5 -166t251.5 -57zM1333 2005l43 -236q-46 -62 -121 -112.5t-139 -50.5q-49 0 -101.5 21.5t-90.5 48t-81.5 48t-76.5 21.5q-89 0 -229 -135
l-35 227q150 174 289 174q48 0 97.5 -21.5t84 -48t75 -48t72.5 -21.5q54 0 105.5 36.5t107.5 96.5z" />
    <glyph glyph-name="Odieresis" unicode="&#xd6;" horiz-adv-x="1863" 
d="M934 -20q-136 0 -263 35t-232.5 101.5t-184 156.5t-122.5 206.5t-44 245.5q0 162 67 305.5t180.5 245t268.5 160.5t326 59q172 0 327.5 -58t269.5 -158.5t181.5 -243t67.5 -304.5q0 -127 -43.5 -243.5t-122 -208t-182.5 -159.5t-231.5 -104t-262.5 -36zM934 250
q136 0 248.5 60t178.5 171t66 250q0 143 -67 257t-181 175.5t-251 61.5q-134 0 -248 -69t-179 -184t-65 -247q0 -143 67 -252t179.5 -166t251.5 -57zM459 1763q0 76 53.5 130.5t132.5 54.5q75 0 129.5 -55t54.5 -130q0 -77 -54 -130.5t-130 -53.5q-79 0 -132.5 53t-53.5 131
zM1032 1763q0 76 54 130.5t131 54.5q76 0 131 -55t55 -130q0 -77 -54.5 -130.5t-131.5 -53.5q-78 0 -131.5 53t-53.5 131z" />
    <glyph glyph-name="multiply" unicode="&#xd7;" 
d="M754 649l284 -284l-190 -191l-285 283l-284 -283l-191 191l285 284l-281 279l191 190l280 -278l285 282l190 -190z" />
    <glyph glyph-name="Oslash" unicode="&#xd8;" horiz-adv-x="1863" 
d="M934 -20q-177 0 -326 55l-24 -35h-375l135 184q-121 102 -188.5 240.5t-67.5 300.5t67 305.5t180.5 245t268.5 160.5t326 59t325 -57l27 37h371l-137 -189q123 -104 191.5 -247t68.5 -308q0 -127 -43.5 -243.5t-122 -208t-182.5 -159.5t-231.5 -104t-262.5 -36zM436 725
q0 -167 90 -287l557 764q-81 23 -155 23q-134 0 -248 -69t-179 -184t-65 -247zM934 250q136 0 248.5 60t178.5 171t66 250q0 172 -96 301l-551 -762q67 -20 154 -20z" />
    <glyph glyph-name="Ugrave" unicode="&#xd9;" horiz-adv-x="1691" 
d="M848 -20q-314 0 -503 176t-189 483v836h338v-816q0 -185 96 -289t270 -104q173 0 266 103.5t93 289.5v816h317v-836q0 -203 -88.5 -353.5t-243.5 -228t-356 -77.5zM774 1595l-381 387h375l266 -387h-260z" />
    <glyph glyph-name="Uacute" unicode="&#xda;" horiz-adv-x="1691" 
d="M848 -20q-314 0 -503 176t-189 483v836h338v-816q0 -185 96 -289t270 -104q173 0 266 103.5t93 289.5v816h317v-836q0 -203 -88.5 -353.5t-243.5 -228t-356 -77.5zM694 1595l267 387h374l-381 -387h-260z" />
    <glyph glyph-name="Ucircumflex" unicode="&#xdb;" horiz-adv-x="1691" 
d="M848 -20q-314 0 -503 176t-189 483v836h338v-816q0 -185 96 -289t270 -104q173 0 266 103.5t93 289.5v816h317v-836q0 -203 -88.5 -353.5t-243.5 -228t-356 -77.5zM776 1985h191l405 -390h-348l-154 185l-147 -185h-352z" />
    <glyph glyph-name="Udieresis" unicode="&#xdc;" horiz-adv-x="1691" 
d="M848 -20q-314 0 -503 176t-189 483v836h338v-816q0 -185 96 -289t270 -104q173 0 266 103.5t93 289.5v816h317v-836q0 -203 -88.5 -353.5t-243.5 -228t-356 -77.5zM399 1763q0 76 54 130.5t133 54.5q75 0 129.5 -55t54.5 -130q0 -77 -54 -130.5t-130 -53.5q-79 0 -133 53
t-54 131zM973 1763q0 76 53.5 130.5t130.5 54.5q76 0 131 -55t55 -130q0 -77 -54.5 -130.5t-131.5 -53.5q-78 0 -131 53t-53 131z" />
    <glyph glyph-name="Yacute" unicode="&#xdd;" horiz-adv-x="1650" 
d="M676 2v553l-672 920h387l455 -639l448 639h346l-663 -918v-555h-301zM653 1595l267 387h374l-381 -387h-260z" />
    <glyph glyph-name="Thorn" unicode="&#xde;" horiz-adv-x="1533" 
d="M176 0v1475h338v-246h305q183 0 326 -55t228 -165.5t85 -260.5q0 -151 -84.5 -264.5t-228.5 -171.5t-326 -58h-305v-254h-338zM514 520h283q139 0 226 56.5t87 168.5q0 75 -45.5 125.5t-116 71.5t-162.5 21h-272v-443z" />
    <glyph glyph-name="agrave" unicode="&#xe0;" horiz-adv-x="1613" 
d="M1085 1225q-137 -123 -271.5 -302.5t-244.5 -379.5h531v682h-15zM332 0h-326q104 331 298.5 664.5t410.5 552.5h-422l90 258h1055v-1475h-338v285h-660q-65 -144 -108 -285zM1004 1595l-381 387h374l267 -387h-260z" />
    <glyph glyph-name="aacute" unicode="&#xe1;" horiz-adv-x="1613" 
d="M1085 1225q-137 -123 -271.5 -302.5t-244.5 -379.5h531v682h-15zM332 0h-326q104 331 298.5 664.5t410.5 552.5h-422l90 258h1055v-1475h-338v285h-660q-65 -144 -108 -285zM924 1595l266 387h375l-381 -387h-260z" />
    <glyph glyph-name="acircumflex" unicode="&#xe2;" horiz-adv-x="1613" 
d="M1085 1225q-137 -123 -271.5 -302.5t-244.5 -379.5h531v682h-15zM332 0h-326q104 331 298.5 664.5t410.5 552.5h-422l90 258h1055v-1475h-338v285h-660q-65 -144 -108 -285zM1006 1985h190l406 -390h-349l-153 185l-148 -185h-352z" />
    <glyph glyph-name="atilde" unicode="&#xe3;" horiz-adv-x="1613" 
d="M1085 1225q-137 -123 -271.5 -302.5t-244.5 -379.5h531v682h-15zM332 0h-326q104 331 298.5 664.5t410.5 552.5h-422l90 258h1055v-1475h-338v285h-660q-65 -144 -108 -285zM1503 2005l43 -236q-46 -62 -121 -112.5t-139 -50.5q-49 0 -101.5 21.5t-90.5 48t-81.5 48
t-76.5 21.5q-89 0 -229 -135l-35 227q150 174 289 174q48 0 97.5 -21.5t84 -48t75 -48t72.5 -21.5q54 0 105.5 36.5t107.5 96.5z" />
    <glyph glyph-name="adieresis" unicode="&#xe4;" horiz-adv-x="1613" 
d="M1085 1225q-137 -123 -271.5 -302.5t-244.5 -379.5h531v682h-15zM332 0h-326q104 331 298.5 664.5t410.5 552.5h-422l90 258h1055v-1475h-338v285h-660q-65 -144 -108 -285zM629 1763q0 76 53.5 130.5t132.5 54.5q75 0 129.5 -55t54.5 -130q0 -77 -54 -130.5t-130 -53.5
q-79 0 -132.5 53t-53.5 131zM1202 1763q0 76 53.5 130.5t130.5 54.5q76 0 131.5 -55t55.5 -130q0 -77 -55 -130.5t-132 -53.5q-78 0 -131 53t-53 131z" />
    <glyph glyph-name="aring" unicode="&#xe5;" horiz-adv-x="1613" 
d="M1085 1225q-137 -123 -271.5 -302.5t-244.5 -379.5h531v682h-15zM332 0h-326q104 331 298.5 664.5t410.5 552.5h-422l90 258h1055v-1475h-338v285h-660q-65 -144 -108 -285zM778 1886q0 132 95 228t227 96t227.5 -96t95.5 -228t-95.5 -226.5t-227.5 -94.5t-227 94.5
t-95 226.5zM969 1886q0 -56 37.5 -93.5t93.5 -37.5t93.5 37.5t37.5 93.5t-37.5 93.5t-93.5 37.5t-93.5 -37.5t-37.5 -93.5z" />
    <glyph glyph-name="ae" unicode="&#xe6;" horiz-adv-x="2467" 
d="M1075 1217q-135 -121 -267.5 -298t-242.5 -376h447q-17 83 -17 155q0 301 195 519h-115zM1896 -20q-238 0 -437.5 79t-319.5 226h-705q-65 -151 -106 -285h-326q104 331 298.5 664.5t410.5 552.5h-381l90 258h1229q94 20 200 20q298 0 545 -100l-88 -262q-184 92 -438 92
q-197 0 -336.5 -100.5t-185.5 -272.5h753l-35 -256h-725q34 -162 186.5 -254t385.5 -92q113 0 241.5 26t219.5 60l-33 -285q-81 -29 -204.5 -50t-238.5 -21z" />
    <glyph glyph-name="ccedilla" unicode="&#xe7;" horiz-adv-x="1517" 
d="M666 -311l104 305q-139 24 -261.5 83.5t-216.5 147.5t-149 208.5t-55 256.5q0 147 45.5 276t126 224.5t186.5 165t230 104.5t254 35q129 0 279.5 -27.5t256.5 -70.5l-86 -271q-211 93 -434 93q-211 0 -360.5 -144t-149.5 -350q0 -139 74.5 -248t192.5 -165t255 -56
q130 0 236.5 26.5t230.5 82.5l-32 -295q-74 -35 -192 -61t-234 -29l-39 -84q197 -13 297 -89t100 -200q0 -96 -55 -164.5t-140.5 -100.5t-189.5 -32q-132 0 -252 35l-43 194q110 -39 236 -39q157 0 157 82q0 58 -86.5 82.5t-285.5 24.5z" />
    <glyph glyph-name="egrave" unicode="&#xe8;" horiz-adv-x="1560" 
d="M989 -20q-147 0 -281 30t-247 90.5t-196 145.5t-130 201t-47 251q0 172 67 321t182 253t272 163.5t333 59.5q298 0 545 -100l-88 -262q-184 92 -438 92q-197 0 -337 -100.5t-186 -272.5h754l-35 -256h-723q34 -162 186 -254t384 -92q113 0 240.5 26t219.5 60l-32 -285
q-81 -29 -204.5 -50t-238.5 -21zM848 1595l-381 387h375l266 -387h-260z" />
    <glyph glyph-name="eacute" unicode="&#xe9;" horiz-adv-x="1560" 
d="M989 -20q-147 0 -281 30t-247 90.5t-196 145.5t-130 201t-47 251q0 172 67 321t182 253t272 163.5t333 59.5q298 0 545 -100l-88 -262q-184 92 -438 92q-197 0 -337 -100.5t-186 -272.5h754l-35 -256h-723q34 -162 186 -254t384 -92q113 0 240.5 26t219.5 60l-32 -285
q-81 -29 -204.5 -50t-238.5 -21zM768 1595l266 387h375l-381 -387h-260z" />
    <glyph glyph-name="ecircumflex" unicode="&#xea;" horiz-adv-x="1560" 
d="M989 -20q-147 0 -281 30t-247 90.5t-196 145.5t-130 201t-47 251q0 172 67 321t182 253t272 163.5t333 59.5q298 0 545 -100l-88 -262q-184 92 -438 92q-197 0 -337 -100.5t-186 -272.5h754l-35 -256h-723q34 -162 186 -254t384 -92q113 0 240.5 26t219.5 60l-32 -285
q-81 -29 -204.5 -50t-238.5 -21zM850 1985h190l406 -390h-348l-154 185l-147 -185h-353z" />
    <glyph glyph-name="edieresis" unicode="&#xeb;" horiz-adv-x="1560" 
d="M989 -20q-147 0 -281 30t-247 90.5t-196 145.5t-130 201t-47 251q0 172 67 321t182 253t272 163.5t333 59.5q298 0 545 -100l-88 -262q-184 92 -438 92q-197 0 -337 -100.5t-186 -272.5h754l-35 -256h-723q34 -162 186 -254t384 -92q113 0 240.5 26t219.5 60l-32 -285
q-81 -29 -204.5 -50t-238.5 -21zM473 1763q0 76 53.5 130.5t132.5 54.5q75 0 130 -55t55 -130q0 -77 -54.5 -130.5t-130.5 -53.5q-79 0 -132.5 53t-53.5 131zM1047 1763q0 76 53.5 130.5t130.5 54.5q76 0 131 -55t55 -130q0 -77 -54.5 -130.5t-131.5 -53.5q-78 0 -131 53
t-53 131z" />
    <glyph glyph-name="igrave" unicode="&#xec;" horiz-adv-x="690" 
d="M514 1475v-1475h-338v1475h338zM244 1595l-381 387h375l266 -387h-260z" />
    <glyph glyph-name="iacute" unicode="&#xed;" horiz-adv-x="690" 
d="M514 1475v-1475h-338v1475h338zM164 1595l266 387h375l-381 -387h-260z" />
    <glyph glyph-name="icircumflex" unicode="&#xee;" horiz-adv-x="690" 
d="M514 1475v-1475h-338v1475h338zM246 1985h190l406 -390h-348l-154 185l-147 -185h-353z" />
    <glyph glyph-name="idieresis" unicode="&#xef;" horiz-adv-x="690" 
d="M514 1475v-1475h-338v1475h338zM-131 1763q0 76 53.5 130.5t132.5 54.5q75 0 130 -55t55 -130q0 -77 -54.5 -130.5t-130.5 -53.5q-79 0 -132.5 53t-53.5 131zM442 1763q0 76 54 130.5t131 54.5q76 0 131 -55t55 -130q0 -77 -54.5 -130.5t-131.5 -53.5q-78 0 -131.5 53
t-53.5 131z" />
    <glyph glyph-name="eth" unicode="&#xf0;" horiz-adv-x="1789" 
d="M231 0v596h-184v270h184v609h578q137 0 266.5 -28.5t243 -87.5t198.5 -142t134 -200.5t49 -254.5q0 -180 -72.5 -326.5t-196 -240.5t-283.5 -144.5t-339 -50.5h-578zM569 270h219q249 0 406.5 135t157.5 357q0 105 -45 190t-122 139.5t-179 83.5t-218 29h-219v-338h400
v-270h-400v-326z" />
    <glyph glyph-name="ntilde" unicode="&#xf1;" horiz-adv-x="1808" 
d="M176 0v1475h285l854 -967v967h317v-1475h-289l-849 954v-954h-318zM1333 2005l43 -236q-46 -62 -121 -112.5t-139 -50.5q-49 0 -101.5 21.5t-90.5 48t-81.5 48t-76.5 21.5q-89 0 -229 -135l-35 227q150 174 289 174q48 0 97.5 -21.5t84 -48t75 -48t72.5 -21.5
q54 0 105.5 36.5t107.5 96.5z" />
    <glyph glyph-name="ograve" unicode="&#xf2;" horiz-adv-x="1863" 
d="M934 -20q-136 0 -263 35t-232.5 101.5t-184 156.5t-122.5 206.5t-44 245.5q0 162 67 305.5t180.5 245t268.5 160.5t326 59q172 0 327.5 -58t269.5 -158.5t181.5 -243t67.5 -304.5q0 -127 -43.5 -243.5t-122 -208t-182.5 -159.5t-231.5 -104t-262.5 -36zM934 250
q136 0 248.5 60t178.5 171t66 250q0 143 -67 257t-181 175.5t-251 61.5q-134 0 -248 -69t-179 -184t-65 -247q0 -143 67 -252t179.5 -166t251.5 -57zM834 1595l-381 387h374l267 -387h-260z" />
    <glyph glyph-name="oacute" unicode="&#xf3;" horiz-adv-x="1863" 
d="M934 -20q-136 0 -263 35t-232.5 101.5t-184 156.5t-122.5 206.5t-44 245.5q0 162 67 305.5t180.5 245t268.5 160.5t326 59q172 0 327.5 -58t269.5 -158.5t181.5 -243t67.5 -304.5q0 -127 -43.5 -243.5t-122 -208t-182.5 -159.5t-231.5 -104t-262.5 -36zM934 250
q136 0 248.5 60t178.5 171t66 250q0 143 -67 257t-181 175.5t-251 61.5q-134 0 -248 -69t-179 -184t-65 -247q0 -143 67 -252t179.5 -166t251.5 -57zM754 1595l266 387h375l-381 -387h-260z" />
    <glyph glyph-name="ocircumflex" unicode="&#xf4;" horiz-adv-x="1863" 
d="M934 -20q-136 0 -263 35t-232.5 101.5t-184 156.5t-122.5 206.5t-44 245.5q0 162 67 305.5t180.5 245t268.5 160.5t326 59q172 0 327.5 -58t269.5 -158.5t181.5 -243t67.5 -304.5q0 -127 -43.5 -243.5t-122 -208t-182.5 -159.5t-231.5 -104t-262.5 -36zM934 250
q136 0 248.5 60t178.5 171t66 250q0 143 -67 257t-181 175.5t-251 61.5q-134 0 -248 -69t-179 -184t-65 -247q0 -143 67 -252t179.5 -166t251.5 -57zM836 1985h190l406 -390h-349l-153 185l-148 -185h-352z" />
    <glyph glyph-name="otilde" unicode="&#xf5;" horiz-adv-x="1863" 
d="M934 -20q-136 0 -263 35t-232.5 101.5t-184 156.5t-122.5 206.5t-44 245.5q0 162 67 305.5t180.5 245t268.5 160.5t326 59q172 0 327.5 -58t269.5 -158.5t181.5 -243t67.5 -304.5q0 -127 -43.5 -243.5t-122 -208t-182.5 -159.5t-231.5 -104t-262.5 -36zM934 250
q136 0 248.5 60t178.5 171t66 250q0 143 -67 257t-181 175.5t-251 61.5q-134 0 -248 -69t-179 -184t-65 -247q0 -143 67 -252t179.5 -166t251.5 -57zM1333 2005l43 -236q-46 -62 -121 -112.5t-139 -50.5q-49 0 -101.5 21.5t-90.5 48t-81.5 48t-76.5 21.5q-89 0 -229 -135
l-35 227q150 174 289 174q48 0 97.5 -21.5t84 -48t75 -48t72.5 -21.5q54 0 105.5 36.5t107.5 96.5z" />
    <glyph glyph-name="odieresis" unicode="&#xf6;" horiz-adv-x="1863" 
d="M934 -20q-136 0 -263 35t-232.5 101.5t-184 156.5t-122.5 206.5t-44 245.5q0 162 67 305.5t180.5 245t268.5 160.5t326 59q172 0 327.5 -58t269.5 -158.5t181.5 -243t67.5 -304.5q0 -127 -43.5 -243.5t-122 -208t-182.5 -159.5t-231.5 -104t-262.5 -36zM934 250
q136 0 248.5 60t178.5 171t66 250q0 143 -67 257t-181 175.5t-251 61.5q-134 0 -248 -69t-179 -184t-65 -247q0 -143 67 -252t179.5 -166t251.5 -57zM459 1763q0 76 53.5 130.5t132.5 54.5q75 0 129.5 -55t54.5 -130q0 -77 -54 -130.5t-130 -53.5q-79 0 -132.5 53t-53.5 131
zM1032 1763q0 76 54 130.5t131 54.5q76 0 131 -55t55 -130q0 -77 -54.5 -130.5t-131.5 -53.5q-78 0 -131.5 53t-53.5 131z" />
    <glyph glyph-name="divide" unicode="&#xf7;" 
d="M102 784h922v-270h-922v270zM399 252q0 68 47.5 116t116.5 48q67 0 115.5 -48t48.5 -116q0 -69 -48 -116.5t-116 -47.5q-69 0 -116.5 47.5t-47.5 116.5zM399 1057q0 68 47.5 116t116.5 48q67 0 115.5 -48.5t48.5 -115.5q0 -69 -48 -116.5t-116 -47.5q-69 0 -116.5 47.5
t-47.5 116.5z" />
    <glyph glyph-name="oslash" unicode="&#xf8;" horiz-adv-x="1863" 
d="M934 -20q-184 0 -342 61l-29 -41h-334l127 174q-126 103 -197 244t-71 307q0 162 67 305.5t180.5 245t268.5 160.5t326 59q182 0 342 -63l31 43h329l-129 -179q129 -103 201 -249t72 -316q0 -127 -43.5 -243.5t-122 -208t-182.5 -159.5t-231.5 -104t-262.5 -36zM436 725
q0 -179 103 -301l561 772q-85 29 -172 29q-134 0 -248 -69t-179 -184t-65 -247zM934 250q136 0 248.5 60t178.5 171t66 250q0 185 -106 313l-559 -770q80 -24 172 -24z" />
    <glyph glyph-name="ugrave" unicode="&#xf9;" horiz-adv-x="1691" 
d="M848 -20q-314 0 -503 176t-189 483v836h338v-816q0 -185 96 -289t270 -104q173 0 266 103.5t93 289.5v816h317v-836q0 -203 -88.5 -353.5t-243.5 -228t-356 -77.5zM774 1595l-381 387h375l266 -387h-260z" />
    <glyph glyph-name="uacute" unicode="&#xfa;" horiz-adv-x="1691" 
d="M848 -20q-314 0 -503 176t-189 483v836h338v-816q0 -185 96 -289t270 -104q173 0 266 103.5t93 289.5v816h317v-836q0 -203 -88.5 -353.5t-243.5 -228t-356 -77.5zM694 1595l267 387h374l-381 -387h-260z" />
    <glyph glyph-name="ucircumflex" unicode="&#xfb;" horiz-adv-x="1691" 
d="M848 -20q-314 0 -503 176t-189 483v836h338v-816q0 -185 96 -289t270 -104q173 0 266 103.5t93 289.5v816h317v-836q0 -203 -88.5 -353.5t-243.5 -228t-356 -77.5zM776 1985h191l405 -390h-348l-154 185l-147 -185h-352z" />
    <glyph glyph-name="udieresis" unicode="&#xfc;" horiz-adv-x="1691" 
d="M848 -20q-314 0 -503 176t-189 483v836h338v-816q0 -185 96 -289t270 -104q173 0 266 103.5t93 289.5v816h317v-836q0 -203 -88.5 -353.5t-243.5 -228t-356 -77.5zM399 1763q0 76 54 130.5t133 54.5q75 0 129.5 -55t54.5 -130q0 -77 -54 -130.5t-130 -53.5q-79 0 -133 53
t-54 131zM973 1763q0 76 53.5 130.5t130.5 54.5q76 0 131 -55t55 -130q0 -77 -54.5 -130.5t-131.5 -53.5q-78 0 -131 53t-53 131z" />
    <glyph glyph-name="yacute" unicode="&#xfd;" horiz-adv-x="1650" 
d="M676 2v553l-672 920h387l455 -639l448 639h346l-663 -918v-555h-301zM653 1595l267 387h374l-381 -387h-260z" />
    <glyph glyph-name="thorn" unicode="&#xfe;" horiz-adv-x="1533" 
d="M176 0v1475h338v-246h305q183 0 326 -55t228 -165.5t85 -260.5q0 -151 -84.5 -264.5t-228.5 -171.5t-326 -58h-305v-254h-338zM514 520h283q139 0 226 56.5t87 168.5q0 75 -45.5 125.5t-116 71.5t-162.5 21h-272v-443z" />
    <glyph glyph-name="ydieresis" unicode="&#xff;" horiz-adv-x="1650" 
d="M676 2v553l-672 920h387l455 -639l448 639h346l-663 -918v-555h-301zM358 1763q0 76 54 130.5t133 54.5q75 0 129.5 -55t54.5 -130q0 -77 -54 -130.5t-130 -53.5q-79 0 -133 53t-54 131zM932 1763q0 76 53.5 130.5t130.5 54.5q76 0 131.5 -55t55.5 -130q0 -77 -55 -130.5
t-132 -53.5q-78 0 -131 53t-53 131z" />
    <glyph glyph-name="dotlessi" unicode="&#x131;" horiz-adv-x="690" 
d="M514 1475v-1475h-338v1475h338z" />
    <glyph glyph-name="Lslash" unicode="&#x141;" horiz-adv-x="1458" 
d="M31 748l291 137v590h337v-433l218 103l114 -244l-332 -156v-475h787l-66 -270h-1058v586l-177 -82z" />
    <glyph glyph-name="lslash" unicode="&#x142;" horiz-adv-x="1458" 
d="M31 748l291 137v590h337v-433l218 103l114 -244l-332 -156v-475h787l-66 -270h-1058v586l-177 -82z" />
    <glyph glyph-name="OE" unicode="&#x152;" horiz-adv-x="2455" 
d="M946 252q88 0 184 27q-147 177 -147 419q0 280 170 490q-100 35 -213 35q-136 0 -252 -63.5t-185 -178.5t-69 -256q0 -142 71 -251.5t186.5 -165.5t254.5 -56zM1884 -20q-286 0 -504 108q-205 -108 -440 -108q-131 0 -256 33.5t-233 99t-190 155t-128.5 209.5t-46.5 254
q0 168 72.5 313t192.5 242.5t275 153t320 55.5q234 0 438 -115q204 115 453 115q298 0 545 -100l-88 -262q-184 92 -439 92q-197 0 -336.5 -100.5t-185.5 -272.5h754l-35 -256h-725q34 -162 186.5 -254t384.5 -92q113 0 241.5 26t219.5 60l-32 -285q-81 -29 -204.5 -50
t-238.5 -21z" />
    <glyph glyph-name="oe" unicode="&#x153;" horiz-adv-x="2455" 
d="M946 252q88 0 184 27q-147 177 -147 419q0 280 170 490q-100 35 -213 35q-136 0 -252 -63.5t-185 -178.5t-69 -256q0 -142 71 -251.5t186.5 -165.5t254.5 -56zM1884 -20q-286 0 -504 108q-205 -108 -440 -108q-131 0 -256 33.5t-233 99t-190 155t-128.5 209.5t-46.5 254
q0 168 72.5 313t192.5 242.5t275 153t320 55.5q234 0 438 -115q204 115 453 115q298 0 545 -100l-88 -262q-184 92 -439 92q-197 0 -336.5 -100.5t-185.5 -272.5h754l-35 -256h-725q34 -162 186.5 -254t384.5 -92q113 0 241.5 26t219.5 60l-32 -285q-81 -29 -204.5 -50
t-238.5 -21z" />
    <glyph glyph-name="Scaron" unicode="&#x160;" horiz-adv-x="1523" 
d="M90 109l78 280q292 -139 606 -139q167 0 257.5 47.5t90.5 118.5q0 25 -8.5 43.5t-31.5 34t-53 26.5t-84 22.5t-112 20.5t-149 21q-303 41 -444.5 150t-141.5 296q0 138 85.5 244.5t235 163.5t339.5 57q153 0 341 -35.5t300 -83.5l-88 -268q-93 49 -249.5 83t-311.5 34
t-241.5 -47.5t-86.5 -116.5q0 -72 87 -107t320 -69q331 -47 474 -148t143 -286q0 -142 -86.5 -249.5t-238 -164.5t-345.5 -57q-161 0 -356 36.5t-330 92.5zM854 1595h-190l-406 390h348l154 -175l147 175h353z" />
    <glyph glyph-name="scaron" unicode="&#x161;" horiz-adv-x="1523" 
d="M90 109l78 280q292 -139 606 -139q167 0 257.5 47.5t90.5 118.5q0 25 -8.5 43.5t-31.5 34t-53 26.5t-84 22.5t-112 20.5t-149 21q-303 41 -444.5 150t-141.5 296q0 138 85.5 244.5t235 163.5t339.5 57q153 0 341 -35.5t300 -83.5l-88 -268q-93 49 -249.5 83t-311.5 34
t-241.5 -47.5t-86.5 -116.5q0 -72 87 -107t320 -69q331 -47 474 -148t143 -286q0 -142 -86.5 -249.5t-238 -164.5t-345.5 -57q-161 0 -356 36.5t-330 92.5zM854 1595h-190l-406 390h348l154 -175l147 175h353z" />
    <glyph glyph-name="Ydieresis" unicode="&#x178;" horiz-adv-x="1650" 
d="M676 2v553l-672 920h387l455 -639l448 639h346l-663 -918v-555h-301zM358 1763q0 76 54 130.5t133 54.5q75 0 129.5 -55t54.5 -130q0 -77 -54 -130.5t-130 -53.5q-79 0 -133 53t-54 131zM932 1763q0 76 53.5 130.5t130.5 54.5q76 0 131.5 -55t55.5 -130q0 -77 -55 -130.5
t-132 -53.5q-78 0 -131 53t-53 131z" />
    <glyph glyph-name="Zcaron" unicode="&#x17d;" horiz-adv-x="1488" 
d="M78 0v233l858 971h-825v271h1273v-234l-870 -971h891v-270h-1327zM850 1595h-191l-405 390h348l154 -175l147 175h352z" />
    <glyph glyph-name="zcaron" unicode="&#x17e;" horiz-adv-x="1488" 
d="M78 0v233l858 971h-825v271h1273v-234l-870 -971h891v-270h-1327zM850 1595h-191l-405 390h348l154 -175l147 175h352z" />
    <glyph glyph-name="uni0192" unicode="&#x192;" horiz-adv-x="1210" 
d="M733 698h275l24 254h-272l20 160q6 51 48.5 82t97.5 31q31 0 79.5 -9t73.5 -20l66 254q-57 19 -137 32t-146 13q-160 0 -267 -89.5t-128 -250.5l-27 -205h-194l-23 -252h191l-41 -299q-21 -147 -117 -147q-58 0 -125 29l-70 -254q129 -47 265 -47q152 0 247 106t121 307z
" />
    <glyph glyph-name="circumflex" unicode="&#x2c6;" horiz-adv-x="1536" 
d="M672 1985h190l406 -390h-348l-154 185l-148 -185h-352z" />
    <glyph glyph-name="caron" unicode="&#x2c7;" horiz-adv-x="1536" 
d="M862 1595h-190l-406 390h348l154 -175l147 175h353z" />
    <glyph glyph-name="breve" unicode="&#x2d8;" horiz-adv-x="1075" 
d="M94 1942l281 2q5 -75 44.5 -120.5t117.5 -45.5q137 0 161 166l281 -2q-13 -80 -46 -147t-86 -119t-132 -81.5t-176 -29.5q-190 0 -304.5 106t-140.5 271z" />
    <glyph glyph-name="dotaccent" unicode="&#x2d9;" horiz-adv-x="1173" 
d="M385 1757q0 85 58 144t145 59q85 0 144 -59t59 -144q0 -87 -59 -145t-144 -58q-88 0 -145.5 57.5t-57.5 145.5z" />
    <glyph glyph-name="ring" unicode="&#x2da;" horiz-adv-x="1705" 
d="M508 1989q0 -137 98 -234.5t234 -97.5q137 0 235.5 98t98.5 234t-98.5 234.5t-235.5 98.5q-136 0 -234 -98t-98 -235zM717 1989q0 52 35 87t88 35t88 -35t35 -87q0 -53 -35.5 -88t-87.5 -35t-87.5 35t-35.5 88z" />
    <glyph glyph-name="ogonek" unicode="&#x2db;" horiz-adv-x="638" 
d="M535 -246l-19 -215q-35 -16 -89 -28.5t-101 -12.5q-131 0 -217 65.5t-86 178.5q0 196 290 397l164 -96q-153 -130 -153 -221q0 -38 29 -62t79 -24q62 0 103 18z" />
    <glyph glyph-name="tilde" unicode="&#x2dc;" horiz-adv-x="1198" 
d="M1010 2005l43 -236q-46 -62 -121 -112.5t-139 -50.5q-49 0 -102 21.5t-90.5 48t-81.5 48t-77 21.5q-89 0 -229 -135l-35 227q150 174 289 174q48 0 98 -21.5t84 -48t75 -48t73 -21.5q54 0 105.5 36.5t107.5 96.5z" />
    <glyph glyph-name="hungarumlaut" unicode="&#x2dd;" horiz-adv-x="1333" 
d="M150 1595l266 387h354l-360 -387h-260zM563 1595l266 387h355l-361 -387h-260z" />
    <glyph glyph-name="uni0300" unicode="&#x300;" horiz-adv-x="0" 
d="M-96 1595l-381 387h375l266 -387h-260z" />
    <glyph glyph-name="uni0301" unicode="&#x301;" horiz-adv-x="0" 
d="M-176 1595l266 387h375l-381 -387h-260z" />
    <glyph glyph-name="uni0302" unicode="&#x302;" horiz-adv-x="0" 
d="M-94 1985h190l406 -390h-348l-154 185l-147 -185h-353z" />
    <glyph glyph-name="uni0303" unicode="&#x303;" horiz-adv-x="0" 
d="M403 2005l43 -236q-46 -62 -121 -112.5t-139 -50.5q-49 0 -101.5 21.5t-90.5 48t-81.5 48t-76.5 21.5q-89 0 -229 -135l-35 227q150 174 289 174q48 0 97.5 -21.5t84 -48t75 -48t72.5 -21.5q54 0 105.5 36.5t107.5 96.5z" />
    <glyph glyph-name="uni0304" unicode="&#x304;" horiz-adv-x="0" 
d="M-414 1645v258h828v-258h-828z" />
    <glyph glyph-name="uni0306" unicode="&#x306;" horiz-adv-x="0" 
d="M-442 1942l280 2q5 -75 44.5 -120.5t117.5 -45.5q138 0 162 166l280 -2q-13 -80 -46 -147t-86 -119t-132 -81.5t-176 -29.5t-176.5 29.5t-133.5 81.5t-87.5 119.5t-46.5 146.5z" />
    <glyph glyph-name="uni0307" unicode="&#x307;" horiz-adv-x="0" 
d="M-203 1757q0 85 58 144t145 59q85 0 144 -59t59 -144q0 -87 -59 -145t-144 -58q-88 0 -145.5 57.5t-57.5 145.5z" />
    <glyph glyph-name="uni0308" unicode="&#x308;" horiz-adv-x="0" 
d="M-471 1763q0 76 53.5 130.5t132.5 54.5q75 0 130 -55t55 -130q0 -77 -54.5 -130.5t-130.5 -53.5q-79 0 -132.5 53t-53.5 131zM102 1763q0 76 54 130.5t131 54.5q76 0 131 -55t55 -130q0 -77 -54.5 -130.5t-131.5 -53.5q-78 0 -131.5 53t-53.5 131z" />
    <glyph glyph-name="uni030A" unicode="&#x30a;" horiz-adv-x="0" 
d="M-322 1886q0 -132 95 -226.5t227 -94.5t228 94.5t96 226.5t-96 228t-228 96t-227 -96t-95 -228zM-131 1886q0 56 37.5 93.5t93.5 37.5t93.5 -37.5t37.5 -93.5t-37.5 -93.5t-93.5 -37.5t-93.5 37.5t-37.5 93.5z" />
    <glyph glyph-name="uni030B" unicode="&#x30b;" horiz-adv-x="0" 
d="M-414 1595l267 387h354l-361 -387h-260zM0 1595l266 387h355l-361 -387h-260z" />
    <glyph glyph-name="uni030C" unicode="&#x30c;" horiz-adv-x="0" 
d="M96 1595h-190l-406 390h348l154 -175l148 175h352z" />
    <glyph glyph-name="uni0327" unicode="&#x327;" horiz-adv-x="0" 
d="M-135 45h211l-72 -149q197 -13 297 -89t100 -200q0 -96 -55 -164.5t-140.5 -100.5t-189.5 -32q-132 0 -252 35l-43 194q110 -39 236 -39q158 0 158 82q0 58 -86.5 82.5t-286.5 24.5z" />
    <glyph glyph-name="uni0328" unicode="&#x328;" horiz-adv-x="0" 
d="M207 -246l-19 -215q-35 -16 -89 -28.5t-101 -12.5q-131 0 -217 65.5t-86 178.5q0 195 291 397l164 -96q-154 -130 -154 -221q0 -38 29 -62t79 -24q62 0 103 18z" />
    <glyph glyph-name="uni0394" unicode="&#x394;" horiz-adv-x="1507" 
d="M1446 0h-1383v225l543 1250h264l576 -1250v-225zM727 1110l-348 -840h708z" />
    <glyph glyph-name="uni03A9" unicode="&#x3a9;" horiz-adv-x="1730" 
d="M106 270h383q-364 258 -364 570q0 186 95 336t263.5 234.5t378.5 84.5q209 0 380 -84.5t268.5 -234.5t97.5 -336q0 -333 -371 -570h385v-270h-700v258q181 142 264.5 274.5t83.5 282.5q0 175 -116 292.5t-292 117.5q-175 0 -287 -117t-112 -293q0 -292 348 -557v-258
h-705v270z" />
    <glyph glyph-name="uni03BC" unicode="&#x3bc;" horiz-adv-x="1290" 
d="M831 0l-4 74q-166 -99 -274 -99q-39 0 -76 9v-369h-317v1409h317v-616q0 -94 35.5 -144.5t116.5 -50.5q114 0 184 76v735h317v-1024h-299z" />
    <glyph glyph-name="pi" unicode="&#x3c0;" horiz-adv-x="1341" 
d="M500 2h-318q55 362 62 752h-131l-13 237l189 33h950l-20 -270h-123v-574q0 -108 41 -178h-318q-41 64 -41 168v584h-217q-4 -233 -22.5 -438.5t-38.5 -313.5z" />
    <glyph glyph-name="endash" unicode="&#x2013;" horiz-adv-x="1331" 
d="M154 784h1024v-270h-1024v270z" />
    <glyph glyph-name="emdash" unicode="&#x2014;" horiz-adv-x="2355" 
d="M154 784h2048v-270h-2048v270z" />
    <glyph glyph-name="quoteleft" unicode="&#x2018;" horiz-adv-x="636" 
d="M516 1004q0 -87 -60 -147t-149 -60q-98 0 -156.5 66t-58.5 167q0 150 93.5 281.5t226.5 216.5l141 -76q-157 -121 -213 -256q76 -8 126 -61.5t50 -130.5z" />
    <glyph glyph-name="quoteright" unicode="&#x2019;" horiz-adv-x="614" 
d="M231 831l-133 72q150 117 203 244q-73 8 -120.5 58.5t-47.5 123.5q0 83 57 140t142 57q92 0 147.5 -62.5t55.5 -158.5v-2q-1 -98 -48 -193t-112 -161.5t-144 -117.5z" />
    <glyph glyph-name="quotesinglbase" unicode="&#x201a;" horiz-adv-x="593" 
d="M190 -336l-133 72q150 117 203 244q-73 8 -120.5 58.5t-47.5 123.5q0 83 57 139.5t142 56.5q92 0 147.5 -62.5t55.5 -158.5v-2q-1 -98 -48 -192.5t-112 -161t-144 -117.5z" />
    <glyph glyph-name="quotedblleft" unicode="&#x201c;" horiz-adv-x="1087" 
d="M297 829q-93 0 -149 64t-56 160v4q3 142 91.5 265.5t213.5 203.5l133 -72q-149 -116 -202 -244q73 -8 120.5 -59t47.5 -125q0 -82 -57.5 -139.5t-141.5 -57.5zM768 829q-93 0 -149 64t-56 160v4q3 142 91.5 265.5t213.5 203.5l133 -72q-149 -116 -202 -244
q73 -8 120.5 -59t47.5 -125q0 -82 -57.5 -139.5t-141.5 -57.5z" />
    <glyph glyph-name="quotedblright" unicode="&#x201d;" horiz-adv-x="1085" 
d="M231 831l-133 72q150 117 203 244q-73 8 -120.5 58.5t-47.5 123.5q0 83 57 140t142 57q92 0 147.5 -62.5t55.5 -158.5v-2q-1 -98 -48 -193t-112 -161.5t-144 -117.5zM702 831l-133 72q150 117 203 244q-73 8 -120.5 58.5t-47.5 123.5q0 83 57 140t142 57
q92 0 147.5 -62.5t55.5 -158.5v-2q-1 -98 -48 -193t-112 -161.5t-144 -117.5z" />
    <glyph glyph-name="quotedblbase" unicode="&#x201e;" horiz-adv-x="1064" 
d="M190 -336l-133 72q150 117 203 244q-73 8 -120.5 58.5t-47.5 123.5q0 83 57 139.5t142 56.5q92 0 147.5 -62.5t55.5 -158.5v-2q-1 -98 -48 -192.5t-112 -161t-144 -117.5zM662 -336l-134 72q150 117 203 244q-73 8 -120.5 58.5t-47.5 123.5q0 83 57 139.5t142 56.5
q92 0 147.5 -62.5t55.5 -158.5v-2q-1 -98 -47.5 -192.5t-111.5 -161t-144 -117.5z" />
    <glyph glyph-name="dagger" unicode="&#x2020;" horiz-adv-x="1056" 
d="M59 1223h349l-17 389h275l-17 -389h348v-248h-348l10 -264l-24 -914h-215l-23 912l11 266h-349v248z" />
    <glyph glyph-name="daggerdbl" unicode="&#x2021;" 
d="M94 1223h348l-16 389h274l-16 -389h348v-248h-354l16 -270l-16 -271h354v-248h-348l16 -389h-274l16 389h-348v248h355l-17 271l17 270h-355v248z" />
    <glyph glyph-name="bullet" unicode="&#x2022;" horiz-adv-x="944" 
d="M137 715q0 139 97.5 238.5t236.5 99.5q138 0 237 -100t99 -238t-99 -236t-237 -98q-139 0 -236.5 98t-97.5 236z" />
    <glyph glyph-name="ellipsis" unicode="&#x2026;" horiz-adv-x="1654" 
d="M92 190q0 87 60 146t149 59q87 0 148 -59.5t61 -145.5q0 -88 -61 -146t-148 -58q-90 0 -149.5 57.5t-59.5 146.5zM618 190q0 87 60 146t149 59q87 0 148 -59.5t61 -145.5q0 -88 -61 -146t-148 -58q-90 0 -149.5 57.5t-59.5 146.5zM1147 190q0 87 60 146t149 59
q87 0 148 -59.5t61 -145.5q0 -88 -61 -146t-148 -58q-90 0 -149.5 57.5t-59.5 146.5z" />
    <glyph glyph-name="perthousand" unicode="&#x2030;" horiz-adv-x="2422" 
d="M1999 653q153 0 258.5 -99.5t105.5 -238.5t-105.5 -237t-258.5 -98t-259 98t-106 237t106 238.5t259 99.5zM1999 174q53 0 89 38.5t36 102.5t-36 104t-89 40t-89 -40t-36 -104t36 -102.5t89 -38.5zM1270 1475h246l-1139 -1475h-246zM434 1495q151 0 258 -100t107 -238
q0 -137 -107 -236.5t-258 -99.5t-257.5 99.5t-106.5 236.5q0 138 106.5 238t257.5 100zM1231 653q153 0 258.5 -99.5t105.5 -238.5t-105.5 -237t-258.5 -98t-259 98t-106 237q0 140 106 239t259 99zM1231 174q53 0 89 38.5t36 102.5t-36 104t-89 40t-89 -40t-36 -104
t36 -102.5t89 -38.5zM434 1016q53 0 89 38.5t36 102.5t-36 103.5t-89 39.5t-89 -39.5t-36 -103.5t36 -102.5t89 -38.5z" />
    <glyph glyph-name="guilsinglleft" unicode="&#x2039;" horiz-adv-x="788" 
d="M328 1024l-242 -399l242 -400h321l-215 400l215 399h-321z" />
    <glyph glyph-name="guilsinglright" unicode="&#x203a;" horiz-adv-x="788" 
d="M461 1024l241 -399l-241 -400h-322l215 400l-215 399h322z" />
    <glyph glyph-name="fraction" unicode="&#x2044;" horiz-adv-x="1085" 
d="M1135 1475l-924 -1475h-260l911 1475h273z" />
    <glyph glyph-name="Euro" unicode="&#x20ac;" horiz-adv-x="1601" 
d="M70 950h182q71 255 272 400t469 145q129 0 280 -27.5t257 -70.5l-86 -271q-211 93 -434 93q-145 0 -251.5 -72.5t-160.5 -196.5h803l-35 -145h-807q-4 -54 -4 -80q0 -41 6 -82h774l-32 -145h-699q55 -115 165 -178.5t253 -63.5q130 0 236.5 26.5t230.5 82.5l-33 -295
q-77 -37 -203.5 -63.5t-244.5 -26.5q-182 0 -339.5 62.5t-269.5 180.5t-155 275h-174v145h149q-2 16 -2 47q0 60 6 115h-153v145z" />
    <glyph glyph-name="trademark" unicode="&#x2122;" horiz-adv-x="1792" 
d="M719 1114h-178v-536h-256v536h-199v246h633v-246zM1012 578h-238v782h184l248 -234l248 234h184v-782h-237v423l-195 -180l-194 180v-423z" />
    <glyph glyph-name="partialdiff" unicode="&#x2202;" horiz-adv-x="1241" 
d="M807 801q16 69 16 145q0 66 -13.5 119.5t-44 98t-86 69t-132.5 24.5q-80 0 -170.5 -27.5t-159.5 -64.5l10 250q75 34 177.5 57t197.5 23q263 0 401 -145.5t138 -397.5q0 -281 -77 -501.5t-219 -345.5t-327 -125q-198 0 -326.5 110t-128.5 281q0 114 38 212t103 164.5
t151 104t182 37.5q82 0 157.5 -25.5t112.5 -62.5zM381 401q0 -85 41.5 -134.5t122.5 -49.5q82 0 143 97t80 251q-27 40 -78.5 63t-107.5 23q-93 0 -147 -74t-54 -176z" />
    <glyph glyph-name="product" unicode="&#x220f;" horiz-adv-x="1609" 
d="M995 -266v1470h-381v-1470h-338v1470h-204v271h1466v-271h-205v-1470h-338z" />
    <glyph glyph-name="summation" unicode="&#x2211;" horiz-adv-x="1443" 
d="M645 584l-565 641v250h1280v-271h-852l543 -600l-580 -600h889v-270h-1280v250z" />
    <glyph glyph-name="minus" unicode="&#x2212;" 
d="M102 514v270h922v-270h-922z" />
    <glyph glyph-name="radical" unicode="&#x221a;" horiz-adv-x="1271" 
d="M823 0h-286l-267 627l-190 -72l-82 219l467 182l223 -598h12l285 1119h236z" />
    <glyph glyph-name="infinity" unicode="&#x221e;" horiz-adv-x="1839" 
d="M1315 143q-120 0 -220 59.5t-173 170.5q-79 -122 -172.5 -176t-239.5 -54q-125 0 -221 69t-145.5 182.5t-49.5 250.5q0 215 117.5 353.5t312.5 138.5q244 0 394 -232q77 123 166.5 177.5t226.5 54.5q199 0 315.5 -142.5t118.5 -359.5q2 -215 -116 -353.5t-314 -138.5z
M541 401q139 0 215 189q9 21 18 39q-81 250 -239 250q-83 0 -131 -64t-48 -170q0 -109 50.5 -176.5t134.5 -67.5zM1305 401q81 0 128.5 63t49.5 169q2 111 -49.5 178.5t-137.5 67.5q-135 0 -213 -189q-3 -7 -10 -21.5t-10 -21.5q86 -246 242 -246z" />
    <glyph glyph-name="integral" unicode="&#x222b;" horiz-adv-x="761" 
d="M467 1475q0 -88 74.5 -714t74.5 -743q0 -247 -125 -355.5t-401 -108.5v270q99 0 144 45.5t45 138.5q0 107 -75 706t-75 740q0 236 134.5 351.5t420.5 115.5v-270q-110 0 -163.5 -43t-53.5 -133z" />
    <glyph glyph-name="approxequal" unicode="&#x2248;" 
d="M985 1071l43 -260q-44 -59 -126 -108.5t-148 -49.5q-56 0 -114 22t-99 48t-90 48t-89 22q-96 0 -241 -140l-35 252q54 62 134 115t167 53q55 0 110 -21.5t92.5 -48t83.5 -48t85 -21.5q94 0 227 137zM995 621l43 -261q-44 -59 -126 -108t-148 -49q-56 0 -114 21.5
t-98.5 48t-89.5 48t-89 21.5q-98 0 -242 -139l-35 252q54 62 134 115t167 53q55 0 110 -22t92.5 -48t83.5 -48t85 -22q93 0 227 138z" />
    <glyph glyph-name="notequal" unicode="&#x2260;" 
d="M922 1231l-82 -215h198v-271h-301l-78 -200h379v-271h-481l-80 -208h-227l80 208h-242v271h344l78 200h-422v271h524l82 215h228z" />
    <glyph glyph-name="lessequal" unicode="&#x2264;" 
d="M82 883l926 340v-291l-549 -156l549 -82v-291l-926 226v254zM84 84v270h924v-270h-924z" />
    <glyph glyph-name="greaterequal" unicode="&#x2265;" 
d="M1044 883l-925 340v-291l549 -156l-549 -82v-291l925 226v254zM1042 84v270h-923v-270h923z" />
    <glyph glyph-name="lozenge" unicode="&#x25ca;" 
d="M719 0h-305l-400 737l400 738h305l391 -738zM565 1208l-211 -471l211 -471l207 471z" />
    <glyph glyph-name="four.superior" horiz-adv-x="1032" 
d="M565 621v131h-475v188l496 535h221v-533h158l-47 -190h-111v-131h-242zM565 942v248l-235 -248h235z" />
    <glyph glyph-name="K.alt" horiz-adv-x="1591" 
d="M1583 0h-379q-67 135 -203 321t-249 291l-238 -250v-362h-338v1475h338v-707l635 707h426l-604 -635q156 -144 340 -391.5t272 -448.5z" />
    <glyph glyph-name="A.alt" horiz-adv-x="1628" 
d="M-20 0l735 1475h229l674 -1475h-371l-129 305h-667l-148 -305h-323zM1008 563l-205 479l-230 -479h435z" />
    <glyph glyph-name="N.alt" horiz-adv-x="1828" 
d="M1653 0h-289q-145 245 -422 565.5t-448 452.5v-1018h-318v1475h285q231 -177 477.5 -434.5t396.5 -475.5v910h318v-1475z" />
    <glyph glyph-name="Z.alt" horiz-adv-x="1497" 
d="M84 0v233q176 277 413 547t425 424h-805v271h1274v-234q-257 -208 -519.5 -484.5t-398.5 -486.5h938v-270h-1327z" />
    <glyph glyph-name="V.alt" horiz-adv-x="1583" 
d="M1247 1475h309q-117 -402 -283 -787t-351 -688h-252q-180 283 -349.5 668.5t-310.5 806.5h352q208 -611 457 -1100q109 216 222 507t206 593z" />
    <glyph glyph-name="R.alt" horiz-adv-x="1718" 
d="M49 1208l101 267h784q92 0 179.5 -20t166 -61t138 -99.5t94 -141.5t34.5 -180q0 -154 -80.5 -265.5t-216.5 -175.5l455 -532h-438l-367 459h-297v-459h-338v1208h-215zM602 725h262q90 0 164 26t122 81t48 131q0 121 -91.5 183t-232.5 62h-272v-483z" />
    <glyph glyph-name="F.alt" horiz-adv-x="1501" 
d="M47 1208l100 267h1348l-61 -271h-832v-389h602l-49 -270h-553v-545h-338v1208h-217z" />
    <glyph glyph-name="W.alt" horiz-adv-x="2320" 
d="M1030 1475h266q155 -632 344 -1076q82 214 165.5 510.5t133.5 565.5h353q-85 -388 -225 -776t-312 -699h-252q-207 457 -340 944q-45 -157 -109 -339.5t-108.5 -295t-124.5 -309.5h-252q-173 307 -314 694t-230 781h356q60 -299 143 -593t166 -483q90 214 185 514
t155 562z" />
    <glyph glyph-name="X.alt" horiz-adv-x="1648" 
d="M803 555q-118 -119 -233 -268.5t-193 -286.5h-377q122 187 288 383t324 350q-185 192 -313.5 355t-273.5 387h434q152 -275 383 -529q161 167 397 529h379q-103 -168 -270 -367.5t-314 -343.5q338 -334 617 -764h-432q-151 270 -416 555z" />
    <glyph glyph-name="D.alt" horiz-adv-x="1822" 
d="M47 1208l100 267h695q137 0 266.5 -28.5t243 -87.5t198.5 -142t134 -200.5t49 -254.5q0 -180 -72.5 -326.5t-196 -240.5t-283.5 -144.5t-339 -50.5h-578v1208h-217zM602 270h219q249 0 406 135t157 357q0 139 -77.5 241t-203.5 151.5t-282 49.5h-219v-934z" />
    <glyph glyph-name="Q.alt" horiz-adv-x="1904" 
d="M1851 -309l-483 395q-198 -106 -434 -106q-136 0 -263 35t-232.5 101.5t-184 156.5t-122.5 206.5t-44 245.5q0 162 67 305.5t180.5 245t268.5 160.5t326 59q172 0 327.5 -58t269.5 -158.5t181.5 -243t67.5 -304.5q0 -259 -170 -459l438 -346zM934 250q136 0 248.5 60
t178.5 171t66 250q0 143 -67 257t-181 175.5t-251 61.5q-134 0 -248 -69t-179 -184t-65 -247q0 -143 67 -252t179.5 -166t251.5 -57z" />
    <glyph glyph-name="H.alt" horiz-adv-x="1722" 
d="M1208 0v760h-694v-760h-338v1475h338v-439h694v439h338v-1475h-338z" />
    <glyph glyph-name="B.alt" horiz-adv-x="1722" 
d="M47 1208l100 267h881q142 0 261.5 -49t190 -137t70.5 -195q0 -87 -71 -165t-160 -118q323 -106 323 -369q0 -139 -87.5 -241.5t-223 -151.5t-297.5 -49h-770v1208h-217zM602 266h395q129 0 218.5 53t89.5 144q0 88 -84.5 129t-221.5 41h-397v-367zM602 889h352
q116 0 188 43t72 127q0 57 -69 103t-166 46h-377v-319z" />
    <glyph glyph-name="C.alt" horiz-adv-x="1536" 
d="M944 -20q-130 0 -255.5 32t-233.5 94.5t-190.5 147.5t-129.5 197.5t-47 238.5q0 147 45.5 276t126 224.5t186.5 165t230 104.5t254 35q150 0 307 -31.5t285 -91.5l-174 -233q-177 80 -402 80q-211 0 -360.5 -144t-149.5 -350q0 -139 74.5 -248t192.5 -165t255 -56
q130 0 236.5 26.5t230.5 82.5l-32 -295q-77 -37 -204 -63.5t-245 -26.5z" />
    <glyph glyph-name="R.alt2" horiz-adv-x="1581" 
d="M176 1475h670q92 0 179.5 -20t166 -61t138 -99.5t94 -141.5t34.5 -180q0 -152 -79 -263t-212 -175q209 -270 351 -535h-381q-47 94 -131.5 221.5t-174.5 237.5h-12h-305v-459h-338v1475zM514 725h262q90 0 164 26t122 81t48 131q0 121 -91.5 183t-232.5 62h-272v-483z
" />
    </font>
</defs>
</svg>
