<?xml version="1.0" standalone="no"?>
<!DOCTYPE svg PUBLIC "-//W3C//DTD SVG 1.1//EN" "http://www.w3.org/Graphics/SVG/1.1/DTD/svg11.dtd" >
<svg xmlns="http://www.w3.org/2000/svg" xmlns:xlink="http://www.w3.org/1999/xlink" version="1.1">
<metadata>
Created by FontForge 20201107 at Wed Mar 26 12:24:45 2025
 By 
Copyright 2017 CAST Cooperativa Anonima Servizi Tipografici. All rights reserved.
</metadata>
<defs>
<font id="Camel-Regular" horiz-adv-x="1126" >
  <font-face 
    font-family="Camel"
    font-weight="400"
    font-stretch="normal"
    units-per-em="2048"
    panose-1="0 0 0 0 0 0 0 0 0 0"
    ascent="1536"
    descent="-512"
    x-height="1475"
    cap-height="1475"
    bbox="-459 -690 2619 2179"
    underline-thickness="102"
    underline-position="-204"
    unicode-range="U+0020-25CA"
  />
<missing-glyph horiz-adv-x="1024" 
d="M0 0v1434h1024v-1434h-1024zM512 809l348 522h-696zM573 717l349 -522v1044zM164 102h696l-348 523zM102 1239v-1044l349 522z" />
    <glyph glyph-name="O_O" unicode="OO" horiz-adv-x="2729" 
d="M1815 1495q161 0 308 -57.5t256.5 -157.5t174.5 -244t65 -307q0 -161 -65.5 -302t-176 -238t-258.5 -153t-309 -56q-256 0 -448 131q-192 -131 -449 -131q-161 0 -307.5 55.5t-255.5 153t-174 238.5t-65 304t65.5 306t175 243t257.5 157.5t309 57.5q251 0 446 -133
q198 133 451 133zM332 727q0 -164 78.5 -294t212.5 -200.5t297 -70.5q152 0 286 67q-98 97 -151.5 225t-53.5 277t55 280t156 232q-137 70 -294 70q-162 0 -296.5 -76t-212 -210.5t-77.5 -299.5zM1810 162q163 0 297 73t211.5 204t77.5 294q0 124 -46.5 232t-125 184
t-187 120t-229.5 44q-159 0 -290 -70q100 -102 155.5 -233.5t55.5 -280.5q0 -145 -55.5 -274t-155.5 -228q136 -65 292 -65zM1362 330q80 77 124 180.5t44 222.5q0 120 -43 224t-121 180q-80 -78 -124 -183.5t-44 -226.5q0 -236 164 -397z" />
    <glyph glyph-name=".notdef" horiz-adv-x="1024" 
d="M0 0v1434h1024v-1434h-1024zM512 809l348 522h-696zM573 717l349 -522v1044zM164 102h696l-348 523zM102 1239v-1044l349 522z" />
    <glyph glyph-name=".null" horiz-adv-x="0" 
 />
    <glyph glyph-name="nonmarkingreturn" horiz-adv-x="682" 
 />
    <glyph glyph-name="space" unicode=" " horiz-adv-x="636" 
 />
    <glyph glyph-name="exclam" unicode="!" horiz-adv-x="618" 
d="M393 436h-170l-28 1039h227zM162 133q0 62 42.5 105t106.5 43q61 0 104.5 -43.5t43.5 -104.5q0 -64 -43 -106.5t-105 -42.5q-65 0 -107 42t-42 107z" />
    <glyph glyph-name="quotedbl" unicode="&#x22;" horiz-adv-x="884" 
d="M539 1448v25h198v-25l-28 -455h-146zM150 1448v25h198v-25l-29 -455h-145z" />
    <glyph glyph-name="numbersign" unicode="#" horiz-adv-x="1492" 
d="M502 0h-195l35 354h-236v170h252l37 404h-256v170h273l37 375h196l-37 -375h344l37 375h195l-37 -375h239v-170h-256l-38 -404h262v-170h-279l-35 -354h-194l35 354h-344zM897 524l39 404h-344l-39 -404h344z" />
    <glyph glyph-name="dollar" unicode="$" horiz-adv-x="1349" 
d="M592 1741h184v-250q245 -18 447 -96l-58 -176q-95 43 -228.5 70.5t-270.5 27.5q-169 0 -260 -64.5t-91 -167.5q0 -92 95 -148.5t305 -102.5q291 -65 421 -166t130 -267q0 -185 -131 -292t-359 -125v-285h-184v285q-238 13 -506 110l53 182q276 -118 551 -118
q171 0 267 57.5t96 165.5q0 92 -87.5 149t-324.5 111q-272 62 -404.5 161.5t-132.5 262.5q0 126 65.5 220.5t174 145t248.5 62.5v248z" />
    <glyph glyph-name="percent" unicode="%" horiz-adv-x="1642" 
d="M1300 1475h177l-1147 -1475h-176zM424 1495q144 0 244 -94.5t100 -226.5q0 -133 -100 -227.5t-244 -94.5t-244 94.5t-100 227.5q0 132 100 226.5t244 94.5zM1221 623q145 0 244.5 -95t99.5 -227t-99.5 -226.5t-244.5 -94.5t-244.5 94.5t-99.5 226.5q0 133 99.5 227.5
t244.5 94.5zM1221 123q70 0 123 50t53 128t-53 128t-123 50t-123.5 -50t-53.5 -128t53.5 -128t123.5 -50zM424 995q73 0 124.5 50.5t51.5 128.5t-51 128t-125 50t-125 -50t-51 -128q0 -80 51 -129.5t125 -49.5z" />
    <glyph glyph-name="ampersand" unicode="&#x26;" horiz-adv-x="1546" 
d="M643 158q183 0 334 135l-422 422q-96 -27 -170.5 -111t-73.5 -186q0 -121 93.5 -190.5t238.5 -69.5zM1270 0l-168 168q-214 -188 -488 -188q-145 0 -261 48t-186.5 143t-72.5 222q-2 66 17 127.5t51.5 110t78 90.5t94.5 71.5t103 51.5q-108 137 -108 272q0 162 126 270.5
t314 108.5q94 0 192.5 -25.5t167.5 -60.5l-55 -166q-53 29 -131.5 51.5t-148.5 22.5q-110 0 -179 -56.5t-69 -152.5q0 -84 51.5 -162t163.5 -188l334 -328q105 161 133 365h194q-38 -276 -198 -494l305 -301h-260z" />
    <glyph glyph-name="quotesingle" unicode="'" horiz-adv-x="495" 
d="M150 1448v25h198v-25l-29 -455h-145z" />
    <glyph glyph-name="parenleft" unicode="(" horiz-adv-x="661" 
d="M582 -92h-205q-56 89 -94 162.5t-78.5 178t-61 229.5t-20.5 267q0 135 21 256t61.5 225t79.5 178.5t94 162.5h203q-113 -184 -175.5 -395.5t-62.5 -426.5q0 -442 238 -837z" />
    <glyph glyph-name="parenright" unicode=")" horiz-adv-x="663" 
d="M82 -92q237 393 237 837q0 216 -62 427t-175 395h203q55 -88 94 -162.5t79.5 -178.5t61.5 -225t21 -256q0 -142 -20.5 -267t-61 -229.5t-78.5 -178t-94 -162.5h-205z" />
    <glyph glyph-name="asterisk" unicode="*" horiz-adv-x="1038" 
d="M610 1059l301 69l41 -149l-309 -68l168 -278l-131 -90l-168 282l-209 -250l-117 99l213 252l-301 110l56 148l303 -115l26 330l158 -10z" />
    <glyph glyph-name="plus" unicode="+" 
d="M653 559v-405h-184v405h-367v180h367v400h184v-400h371v-180h-371z" />
    <glyph glyph-name="comma" unicode="," horiz-adv-x="561" 
d="M186 -303l-106 59q138 100 186 238q-64 2 -105.5 42.5t-41.5 104.5q0 66 45 111t112 45q75 0 118.5 -53t43.5 -127v-2q-1 -126 -74 -235.5t-178 -182.5z" />
    <glyph glyph-name="hyphen" unicode="-" horiz-adv-x="915" 
d="M170 618v181h575v-181h-575z" />
    <glyph glyph-name="period" unicode="." horiz-adv-x="555" 
d="M121 143q0 66 45.5 111t112.5 45q65 0 111 -45t46 -111q0 -68 -45.5 -111.5t-111.5 -43.5q-68 0 -113 43.5t-45 111.5z" />
    <glyph glyph-name="slash" unicode="/" horiz-adv-x="905" 
d="M834 1475l-568 -1475h-194l567 1475h195z" />
    <glyph glyph-name="zero" unicode="0" horiz-adv-x="1554" 
d="M1436 731q0 -212 -77 -381.5t-227.5 -269.5t-351.5 -100t-352.5 98t-230 266t-78.5 381q0 160 45 300t127.5 244.5t207.5 165t277 60.5q202 0 353.5 -102.5t229 -275t77.5 -386.5zM1217 731q0 120 -29.5 226t-84.5 186.5t-140 127t-189 46.5q-83 0 -154 -32t-122 -88
t-87 -131t-53.5 -161.5t-17.5 -179.5q0 -162 49 -288t150 -201.5t241 -75.5q103 0 187 45t138 122.5t83 181t29 222.5z" />
    <glyph glyph-name="one" unicode="1" horiz-adv-x="837" 
d="M51 1397l580 116v-1513h-215v1294l-365 -75v178z" />
    <glyph glyph-name="two" unicode="2" horiz-adv-x="1304" 
d="M1196 0h-1120v139l569 514q147 135 204.5 217.5t57.5 178.5q0 122 -91 194t-247 72q-113 0 -226.5 -34t-207.5 -91l23 199q77 45 202 75.5t244 30.5q104 0 198.5 -29.5t167 -84t115.5 -137t43 -181.5q0 -137 -73.5 -250.5t-245.5 -261.5l-426 -367h854z" />
    <glyph glyph-name="three" unicode="3" horiz-adv-x="1349" 
d="M623 -20q-152 0 -304.5 38t-246.5 91l61 176q233 -123 479 -123q186 0 300 87.5t114 235.5q0 146 -120.5 216.5t-330.5 70.5h-149l448 520h-743l35 183h999v-127l-397 -424q103 -15 186.5 -47t150.5 -84t104.5 -131t37.5 -179q0 -150 -83 -265.5t-224.5 -176.5
t-316.5 -61z" />
    <glyph glyph-name="four" unicode="4" horiz-adv-x="1384" 
d="M883 0v264h-834v156l877 1055h159v-1033h232l-37 -178h-195v-264h-202zM883 442v719l-594 -719h594z" />
    <glyph glyph-name="five" unicode="5" horiz-adv-x="1343" 
d="M1204 1475l-37 -185h-778l-37 -397q152 49 305 49q269 0 426.5 -125t157.5 -336q0 -150 -83.5 -265t-225.5 -175.5t-318 -60.5q-141 0 -281.5 36.5t-240.5 87.5l62 175q90 -49 207.5 -83t240.5 -34q190 0 304 83t114 222q0 140 -108.5 215.5t-307.5 75.5
q-109 0 -237.5 -29.5t-202.5 -64.5l57 811h983z" />
    <glyph glyph-name="six" unicode="6" horiz-adv-x="1423" 
d="M793 1495q122 0 248 -32t223 -83l-60 -172q-208 109 -399 109q-201 0 -322 -144.5t-145 -396.5q73 79 183 124.5t247 45.5q150 0 273.5 -53t200.5 -159.5t77 -248.5q0 -150 -77 -265.5t-210.5 -177.5t-300.5 -62q-284 0 -447 182t-163 512q0 233 81 418.5t235.5 294
t355.5 108.5zM729 772q-152 0 -257 -81.5t-105 -209.5q0 -137 102 -230t272 -93q162 0 261.5 85t99.5 230q0 140 -108 219.5t-265 79.5z" />
    <glyph glyph-name="seven" unicode="7" horiz-adv-x="1210" 
d="M1165 1333l-682 -1333h-245l688 1286h-887l37 189h1089v-142z" />
    <glyph glyph-name="eight" unicode="8" horiz-adv-x="1478" 
d="M739 -20q-276 0 -449 120.5t-173 311.5q0 133 84 228t221 142q-115 43 -184.5 124t-69.5 196q0 166 159 279.5t412 113.5t413.5 -113.5t160.5 -279.5q0 -115 -70.5 -196t-185.5 -124q138 -47 222.5 -142t84.5 -228q0 -191 -174.5 -311.5t-450.5 -120.5zM739 158
q184 0 296 71.5t112 194.5q0 121 -109.5 194.5t-298.5 73.5q-183 0 -294 -73.5t-111 -194.5q0 -123 111 -194.5t294 -71.5zM739 868q177 0 268 61t91 163q0 99 -96.5 163t-262.5 64t-261 -63.5t-95 -163.5q0 -99 93.5 -161.5t262.5 -62.5z" />
    <glyph glyph-name="nine" unicode="9" horiz-adv-x="1429" 
d="M623 -20q-131 0 -258 32t-226 84l60 172q211 -110 411 -110q210 0 335 146t149 401q-71 -80 -184.5 -126.5t-250.5 -46.5q-156 0 -278.5 52t-195 158t-72.5 251q0 148 76.5 263t208.5 177t296 62q288 0 451.5 -181t163.5 -513q0 -174 -48 -324.5t-135 -260.5t-217 -173
t-286 -63zM700 709q154 0 259.5 80t105.5 208q0 135 -103.5 228.5t-271.5 93.5q-163 0 -261.5 -84.5t-98.5 -228.5q0 -139 106.5 -218t263.5 -79z" />
    <glyph glyph-name="colon" unicode=":" horiz-adv-x="649" 
d="M168 143q0 66 45.5 111t112.5 45q65 0 111 -45t46 -111q0 -68 -45.5 -111.5t-111.5 -43.5q-68 0 -113 43.5t-45 111.5zM168 817q0 66 45.5 111t112.5 45q65 0 111 -45t46 -111q0 -68 -45.5 -111.5t-111.5 -43.5q-68 0 -113 43.5t-45 111.5z" />
    <glyph glyph-name="semicolon" unicode=";" horiz-adv-x="681" 
d="M256 -303l-106 59q138 100 186 238q-64 2 -106 42.5t-42 104.5q0 66 45.5 111t112.5 45q75 0 118.5 -53t43.5 -127v-2q-1 -126 -74 -235.5t-178 -182.5zM186 817q0 66 45.5 111t112.5 45q65 0 111.5 -45.5t46.5 -110.5q0 -68 -46 -111.5t-112 -43.5q-68 0 -113 43.5
t-45 111.5z" />
    <glyph glyph-name="less" unicode="&#x3c;" 
d="M983 229l-926 349v151l926 340v-199l-690 -217l690 -223v-201z" />
    <glyph glyph-name="equal" unicode="=" 
d="M111 961h905v-181h-905v181zM111 510h905v-180h-905v180z" />
    <glyph glyph-name="greater" unicode="&#x3e;" 
d="M1069 578l-926 -349v201l691 223l-691 217v199l926 -340v-151z" />
    <glyph glyph-name="question" unicode="?" horiz-adv-x="1038" 
d="M76 1192l20 201q181 102 391 102q203 0 335 -113.5t132 -300.5q0 -74 -24 -137t-62 -106.5t-84.5 -80.5t-93 -66.5t-84.5 -57.5t-62 -60.5t-24 -68.5q0 -39 8 -66h-174q-28 62 -28 121q0 49 22.5 90.5t58 72.5t79 60t86.5 58.5t78.5 62t58 76.5t22.5 96
q0 113 -73.5 177.5t-200.5 64.5q-95 0 -196 -34.5t-185 -90.5zM274 139q0 66 45.5 111t112.5 45q65 0 111.5 -45.5t46.5 -110.5q0 -68 -46 -111.5t-112 -43.5q-68 0 -113 43.5t-45 111.5z" />
    <glyph glyph-name="at" unicode="@" horiz-adv-x="1941" 
d="M725 696q0 -125 69.5 -204.5t174.5 -79.5q104 0 166.5 81t62.5 216q0 132 -61.5 212t-161.5 80q-107 0 -178.5 -87t-71.5 -218zM555 696q0 124 57 229.5t152.5 165.5t204.5 60q92 0 163.5 -40t116.5 -112q10 51 31 123l125 -30q-43 -176 -43 -377q0 -155 42.5 -223
t102.5 -68q68 0 118 110.5t50 280.5q0 183 -85.5 322t-235 212.5t-340.5 73.5q-204 0 -368 -96t-256.5 -266t-92.5 -381q0 -198 83.5 -351t233.5 -237t342 -84q193 0 367 80l-25 -197q-155 -63 -344 -63q-234 0 -425.5 106t-303.5 301t-112 443q0 194 67 365t185 294.5
t288 195t367 71.5q239 0 430 -99t299.5 -279t108.5 -409q0 -238 -98.5 -396.5t-256.5 -158.5q-78 0 -141.5 44.5t-101.5 129.5q-47 -83 -124 -128.5t-178 -45.5q-172 0 -287.5 124t-115.5 310z" />
    <glyph glyph-name="A" unicode="A" horiz-adv-x="1568" 
d="M1130 1305q-193 -134 -368 -342t-313 -455h698v797h-17zM223 0h-211q121 376 348.5 731.5t501.5 571.5l-119 -3h-417l63 175h973v-1475h-215v334h-789q-78 -164 -135 -334z" />
    <glyph glyph-name="B" unicode="B" horiz-adv-x="1611" 
d="M211 0v1475h700q133 0 247 -45t184.5 -131t70.5 -195q0 -104 -68.5 -183.5t-166.5 -121.5q69 -20 125 -50.5t103 -74.5t73 -106t26 -138q0 -137 -81 -236t-212 -146.5t-294 -47.5h-707zM426 178h471q173 0 282 67.5t109 192.5q0 118 -108.5 181t-280.5 63h-473v-504z
M426 854h451q143 0 231 60.5t88 168.5q0 93 -91 153t-220 60h-459v-442z" />
    <glyph glyph-name="C" unicode="C" horiz-adv-x="1480" 
d="M930 -20q-131 0 -254 33t-225 96t-178.5 150t-119 201t-42.5 242q0 171 65 320t175 252t259 162t314 59q120 0 254 -27t239 -71l-57 -178q-211 92 -428 92q-168 0 -305.5 -79t-215 -214.5t-77.5 -298.5q0 -165 81.5 -292.5t218.5 -195t304 -67.5q227 0 448 108l-24 -202
q-85 -40 -201.5 -65t-230.5 -25z" />
    <glyph glyph-name="D" unicode="D" horiz-adv-x="1705" 
d="M207 0v1475h536q177 0 331.5 -48.5t270 -138t182 -225.5t66.5 -301q0 -174 -65 -318.5t-179.5 -241t-270 -149.5t-335.5 -53h-536zM424 180h307q286 0 462.5 159.5t176.5 422.5q0 163 -83 284.5t-227 184.5t-329 63h-307v-1114z" />
    <glyph glyph-name="E" unicode="E" horiz-adv-x="1533" 
d="M971 -20q-147 0 -278 31t-237.5 92.5t-183.5 147.5t-119 200.5t-42 246.5q0 227 107 410t293 285t413 102q280 0 528 -100l-59 -172q-222 92 -461 92q-235 0 -399.5 -140t-198.5 -364h817l-25 -172h-794q20 -221 192.5 -349t452.5 -128q222 0 446 82l-24 -193
q-89 -32 -204.5 -51.5t-223.5 -19.5z" />
    <glyph glyph-name="F" unicode="F" horiz-adv-x="1339" 
d="M207 1475h1108l-41 -181h-852v-518h608l-35 -180h-573v-596h-215v1475z" />
    <glyph glyph-name="G" unicode="G" horiz-adv-x="1792" 
d="M938 -20q-169 0 -320 53t-263.5 146.5t-178 231t-65.5 298.5q0 164 63.5 310t173 250t262 165t324.5 61q142 0 294 -31.5t261 -85.5l-55 -176q-96 51 -230 82t-262 31q-175 0 -315 -81.5t-216.5 -217.5t-76.5 -297t81.5 -289.5t220 -198t306.5 -69.5q248 0 399.5 127.5
t151.5 335.5h-561l33 174h729q12 -60 12 -146q0 -142 -54 -265t-151.5 -213.5t-243 -142.5t-319.5 -52z" />
    <glyph glyph-name="H" unicode="H" horiz-adv-x="1699" 
d="M207 0v1475h215v-629h856v629h217v-1475h-217v664h-856v-664h-215z" />
    <glyph glyph-name="I" unicode="I" horiz-adv-x="628" 
d="M422 1475v-1475h-215v1475h215z" />
    <glyph glyph-name="J" unicode="J" horiz-adv-x="1003" 
d="M371 -20q-147 0 -297 69l-27 201q157 -88 305 -88q126 0 185 89.5t59 272.5v951h215v-945q0 -550 -440 -550z" />
    <glyph glyph-name="K" unicode="K" horiz-adv-x="1556" 
d="M1550 0h-272l-545 696l-311 -305v-391h-215v1475h215v-824l821 824h277l-637 -629z" />
    <glyph glyph-name="L" unicode="L" horiz-adv-x="1263" 
d="M207 0v1475h215v-1295h807l-47 -180h-975z" />
    <glyph glyph-name="M" unicode="M" horiz-adv-x="1990" 
d="M207 0v1475h186l615 -660l581 660h197v-1475h-217v1034l4 144l-578 -650l-585 631l2 -151v-1008h-205z" />
    <glyph glyph-name="N" unicode="N" horiz-adv-x="1773" 
d="M207 0v1475h182l975 -1141v1141h205v-1475h-185l-972 1133v-1133h-205z" />
    <glyph glyph-name="O" unicode="O" horiz-adv-x="1824" 
d="M913 -20q-165 0 -312.5 56t-255.5 154t-171 237.5t-63 299.5q0 161 62.5 303.5t169.5 244.5t255 161t313 59t313 -58.5t256 -158.5t171 -242.5t63 -302.5q0 -158 -63 -298.5t-170 -240t-255 -157t-313 -57.5zM913 162q163 0 295.5 73t208.5 204t76 294q0 124 -45.5 232.5
t-123 185t-185 120.5t-228.5 44t-228.5 -46.5t-183.5 -125t-120.5 -187t-44.5 -229.5q0 -165 76 -294.5t208 -200t295 -70.5z" />
    <glyph glyph-name="P" unicode="P" horiz-adv-x="1474" 
d="M207 0v1475h579q174 0 312 -55.5t220.5 -165.5t82.5 -257q0 -149 -83 -261.5t-222 -170t-312 -57.5h-362v-508h-215zM422 686h350q184 0 296 84t112 227q0 137 -111.5 218t-296.5 81h-350v-610z" />
    <glyph glyph-name="Q" unicode="Q" horiz-adv-x="1824" 
d="M1677 -47v-205q-117 27 -247.5 105t-221.5 178q-139 -51 -295 -51q-165 0 -312.5 56t-255.5 154t-171 237.5t-63 299.5q0 161 62.5 303.5t169.5 244.5t255 161t313 59t313 -58.5t256 -158.5t171 -242.5t63 -302.5q0 -190 -88 -350.5t-240 -263.5q65 -60 142 -104.5
t149 -61.5zM913 162q163 0 295.5 73t208.5 204t76 294q0 124 -45.5 232.5t-123 185t-185 120.5t-228.5 44t-228.5 -46.5t-183.5 -125t-120.5 -187t-44.5 -229.5q0 -165 76 -294.5t208 -200t295 -70.5z" />
    <glyph glyph-name="R" unicode="R" horiz-adv-x="1579" 
d="M207 0v1475h598q119 0 225.5 -31.5t189.5 -90t132 -150.5t49 -206q0 -156 -88.5 -268t-239.5 -170l481 -559h-282l-422 510q-23 -2 -72 -2h-356v-508h-215zM422 686h332q187 0 306.5 80.5t119.5 226.5t-115 224.5t-297 78.5h-346v-610z" />
    <glyph glyph-name="S" unicode="S" horiz-adv-x="1480" 
d="M96 111l54 186q280 -125 608 -125q205 0 312.5 60.5t107.5 166.5q0 36 -12 64t-41.5 51t-63.5 39.5t-95 33t-119 29t-151 29.5q-134 23 -233.5 55.5t-179.5 82t-121 121.5t-41 165q0 190 167.5 303t446.5 113q149 0 324 -32t291 -79l-60 -176q-104 45 -258 76t-303 31
q-191 0 -295 -60t-104 -158q0 -37 13.5 -66.5t43.5 -52.5t64 -40.5t91 -33t107 -26.5t127 -26q124 -23 214 -47.5t168 -59t125.5 -78t74 -103t26.5 -134.5q0 -200 -169 -315t-459 -115q-159 0 -341 34t-319 87z" />
    <glyph glyph-name="T" unicode="T" horiz-adv-x="1280" 
d="M539 0v1292h-492v183h1208l-38 -183h-463v-1292h-215z" />
    <glyph glyph-name="U" unicode="U" horiz-adv-x="1665" 
d="M836 -20q-299 0 -475.5 176.5t-176.5 482.5v836h217v-826q0 -226 116 -352.5t325 -126.5q205 0 319.5 127t114.5 352v826h205v-836q0 -303 -177 -481t-468 -178z" />
    <glyph glyph-name="V" unicode="V" horiz-adv-x="1558" 
d="M702 0l-671 1475h237l525 -1176l522 1176h213l-670 -1475h-156z" />
    <glyph glyph-name="W" unicode="W" horiz-adv-x="2355" 
d="M1587 0l-401 1155l-414 -1155h-166l-569 1475h231l437 -1149l413 1151l164 -2l406 -1145l428 1145h200l-563 -1475h-166z" />
    <glyph glyph-name="X" unicode="X" horiz-adv-x="1552" 
d="M762 616l-508 -616h-242l633 750l-606 725h278l471 -578l474 578h247l-602 -713l637 -762h-276z" />
    <glyph glyph-name="Y" unicode="Y" horiz-adv-x="1601" 
d="M702 2v582l-661 891h252l518 -699l512 699h229l-651 -891v-582h-199z" />
    <glyph glyph-name="Z" unicode="Z" horiz-adv-x="1402" 
d="M76 0v154l936 1140h-903v181h1191v-154l-944 -1141h965v-180h-1245z" />
    <glyph glyph-name="bracketleft" unicode="[" horiz-adv-x="765" 
d="M207 1548h465v-170h-254v-1280h254v-170h-465v1620z" />
    <glyph glyph-name="backslash" unicode="\" horiz-adv-x="919" 
d="M639 0l-567 1475h209l567 -1475h-209z" />
    <glyph glyph-name="bracketright" unicode="]" horiz-adv-x="765" 
d="M94 1548h465v-1620h-465v170h254v1280h-254v170z" />
    <glyph glyph-name="asciicircum" unicode="^" 
d="M563 1262h-8l-227 -455h-209l354 686h174l363 -686h-209z" />
    <glyph glyph-name="underscore" unicode="_" horiz-adv-x="1228" 
d="M1229 -274h-1229v180h1229v-180z" />
    <glyph glyph-name="grave" unicode="`" horiz-adv-x="1536" 
d="M887 1595l-361 387h252l291 -387h-182z" />
    <glyph glyph-name="a" unicode="a" horiz-adv-x="1568" 
d="M1130 1305q-193 -134 -368 -342t-313 -455h698v797h-17zM223 0h-211q121 376 348.5 731.5t501.5 571.5l-119 -3h-417l63 175h973v-1475h-215v334h-789q-78 -164 -135 -334z" />
    <glyph glyph-name="b" unicode="b" horiz-adv-x="1607" 
d="M207 0v1475h700q133 0 247 -45t184.5 -131t70.5 -195q0 -104 -68.5 -183.5t-166.5 -121.5q69 -20 125 -50.5t103 -74.5t73 -106t26 -138q0 -137 -81.5 -236t-212.5 -146.5t-294 -47.5h-706zM422 178h471q173 0 282 67.5t109 192.5q0 118 -108.5 181t-280.5 63h-473v-504z
M422 854h450q143 0 231.5 60.5t88.5 168.5q0 93 -91 153t-220 60h-459v-442z" />
    <glyph glyph-name="c" unicode="c" horiz-adv-x="1480" 
d="M930 -20q-131 0 -254 33t-225 96t-178.5 150t-119 201t-42.5 242q0 171 65 320t175 252t259 162t314 59q120 0 254 -27t239 -71l-57 -178q-211 92 -428 92q-168 0 -305.5 -79t-215 -214.5t-77.5 -298.5q0 -165 81.5 -292.5t218.5 -195t304 -67.5q227 0 448 108l-24 -202
q-85 -40 -201.5 -65t-230.5 -25z" />
    <glyph glyph-name="d" unicode="d" horiz-adv-x="1705" 
d="M207 0v1475h536q177 0 331.5 -48.5t270 -138t182 -225.5t66.5 -301q0 -174 -65 -318.5t-179.5 -241t-270 -149.5t-335.5 -53h-536zM424 180h307q286 0 462.5 159.5t176.5 422.5q0 163 -83 284.5t-227 184.5t-329 63h-307v-1114z" />
    <glyph glyph-name="e" unicode="e" horiz-adv-x="1533" 
d="M971 -20q-147 0 -278 31t-237.5 92.5t-183.5 147.5t-119 200.5t-42 246.5q0 227 107 410t293 285t413 102q280 0 528 -100l-59 -172q-222 92 -461 92q-235 0 -399.5 -140t-198.5 -364h817l-25 -172h-794q20 -221 192.5 -349t452.5 -128q222 0 446 82l-24 -193
q-89 -32 -204.5 -51.5t-223.5 -19.5z" />
    <glyph glyph-name="f" unicode="f" horiz-adv-x="1339" 
d="M207 1475h1108l-41 -181h-852v-518h608l-35 -180h-573v-596h-215v1475z" />
    <glyph glyph-name="g" unicode="g" horiz-adv-x="1792" 
d="M938 -20q-169 0 -320 53t-263.5 146.5t-178 231t-65.5 298.5q0 164 63.5 310t173 250t262 165t324.5 61q142 0 294 -31.5t261 -85.5l-55 -176q-96 51 -230 82t-262 31q-175 0 -315 -81.5t-216.5 -217.5t-76.5 -297t81.5 -289.5t220 -198t306.5 -69.5q248 0 399.5 127.5
t151.5 335.5h-561l33 174h729q12 -60 12 -146q0 -142 -54 -265t-151.5 -213.5t-243 -142.5t-319.5 -52z" />
    <glyph glyph-name="h" unicode="h" horiz-adv-x="1699" 
d="M207 0v1475h215v-629h856v629h217v-1475h-217v664h-856v-664h-215z" />
    <glyph glyph-name="i" unicode="i" horiz-adv-x="628" 
d="M422 1475v-1475h-215v1475h215z" />
    <glyph glyph-name="j" unicode="j" horiz-adv-x="1003" 
d="M371 -20q-147 0 -297 69l-27 201q157 -88 305 -88q126 0 185 89.5t59 272.5v951h215v-945q0 -550 -440 -550z" />
    <glyph glyph-name="k" unicode="k" horiz-adv-x="1556" 
d="M1550 0h-272l-545 696l-311 -305v-391h-215v1475h215v-824l821 824h277l-637 -629z" />
    <glyph glyph-name="l" unicode="l" horiz-adv-x="1263" 
d="M207 0v1475h215v-1295h807l-47 -180h-975z" />
    <glyph glyph-name="m" unicode="m" horiz-adv-x="1990" 
d="M207 0v1475h186l615 -660l581 660h197v-1475h-217v1034l4 144l-578 -650l-585 631l2 -151v-1008h-205z" />
    <glyph glyph-name="n" unicode="n" horiz-adv-x="1773" 
d="M207 0v1475h182l975 -1141v1141h205v-1475h-185l-972 1133v-1133h-205z" />
    <glyph glyph-name="o" unicode="o" horiz-adv-x="1824" 
d="M913 -20q-165 0 -312.5 56t-255.5 154t-171 237.5t-63 299.5q0 161 62.5 303.5t169.5 244.5t255 161t313 59t313 -58.5t256 -158.5t171 -242.5t63 -302.5q0 -158 -63 -298.5t-170 -240t-255 -157t-313 -57.5zM913 162q163 0 295.5 73t208.5 204t76 294q0 124 -45.5 232.5
t-123 185t-185 120.5t-228.5 44t-228.5 -46.5t-183.5 -125t-120.5 -187t-44.5 -229.5q0 -165 76 -294.5t208 -200t295 -70.5z" />
    <glyph glyph-name="p" unicode="p" horiz-adv-x="1474" 
d="M207 0v1475h579q174 0 312 -55.5t220.5 -165.5t82.5 -257q0 -149 -83 -261.5t-222 -170t-312 -57.5h-362v-508h-215zM422 686h350q184 0 296 84t112 227q0 137 -111.5 218t-296.5 81h-350v-610z" />
    <glyph glyph-name="q" unicode="q" horiz-adv-x="1824" 
d="M1677 -47v-205q-117 27 -247.5 105t-221.5 178q-139 -51 -295 -51q-165 0 -312.5 56t-255.5 154t-171 237.5t-63 299.5q0 161 62.5 303.5t169.5 244.5t255 161t313 59t313 -58.5t256 -158.5t171 -242.5t63 -302.5q0 -190 -88 -350.5t-240 -263.5q65 -60 142 -104.5
t149 -61.5zM913 162q163 0 295.5 73t208.5 204t76 294q0 124 -45.5 232.5t-123 185t-185 120.5t-228.5 44t-228.5 -46.5t-183.5 -125t-120.5 -187t-44.5 -229.5q0 -165 76 -294.5t208 -200t295 -70.5z" />
    <glyph glyph-name="r" unicode="r" horiz-adv-x="1579" 
d="M207 0v1475h598q119 0 225.5 -31.5t189.5 -90t132 -150.5t49 -206q0 -156 -88.5 -268t-239.5 -170l481 -559h-282l-422 510q-23 -2 -72 -2h-356v-508h-215zM422 686h332q187 0 306.5 80.5t119.5 226.5t-115 224.5t-297 78.5h-346v-610z" />
    <glyph glyph-name="s" unicode="s" horiz-adv-x="1480" 
d="M96 111l54 186q280 -125 608 -125q205 0 312.5 60.5t107.5 166.5q0 36 -12 64t-41.5 51t-63.5 39.5t-95 33t-119 29t-151 29.5q-134 23 -233.5 55.5t-179.5 82t-121 121.5t-41 165q0 190 167.5 303t446.5 113q149 0 324 -32t291 -79l-60 -176q-104 45 -258 76t-303 31
q-191 0 -295 -60t-104 -158q0 -37 13.5 -66.5t43.5 -52.5t64 -40.5t91 -33t107 -26.5t127 -26q124 -23 214 -47.5t168 -59t125.5 -78t74 -103t26.5 -134.5q0 -200 -169 -315t-459 -115q-159 0 -341 34t-319 87z" />
    <glyph glyph-name="t" unicode="t" horiz-adv-x="1280" 
d="M539 0v1292h-492v183h1208l-38 -183h-463v-1292h-215z" />
    <glyph glyph-name="u" unicode="u" horiz-adv-x="1665" 
d="M836 -20q-299 0 -475.5 176.5t-176.5 482.5v836h217v-826q0 -226 116 -352.5t325 -126.5q205 0 319.5 127t114.5 352v826h205v-836q0 -303 -177 -481t-468 -178z" />
    <glyph glyph-name="v" unicode="v" horiz-adv-x="1558" 
d="M702 0l-671 1475h237l525 -1176l522 1176h213l-670 -1475h-156z" />
    <glyph glyph-name="w" unicode="w" horiz-adv-x="2355" 
d="M1587 0l-401 1155l-414 -1155h-166l-569 1475h231l437 -1149l413 1151l164 -2l406 -1145l428 1145h200l-563 -1475h-166z" />
    <glyph glyph-name="x" unicode="x" horiz-adv-x="1552" 
d="M762 616l-508 -616h-242l633 750l-606 725h278l471 -578l474 578h247l-602 -713l637 -762h-276z" />
    <glyph glyph-name="y" unicode="y" horiz-adv-x="1601" 
d="M702 2v582l-661 891h252l518 -699l512 699h229l-651 -891v-582h-199z" />
    <glyph glyph-name="z" unicode="z" horiz-adv-x="1402" 
d="M76 0v154l936 1140h-903v181h1191v-154l-944 -1141h965v-180h-1245z" />
    <glyph glyph-name="braceleft" unicode="{" horiz-adv-x="743" 
d="M92 655v170q78 6 113 62t35 166v180q0 171 83 253.5t252 82.5h74v-170h-53q-145 0 -145 -182v-207q0 -201 -177 -258v-13q177 -54 177 -250v-206q0 -94 38 -149.5t109 -55.5h51v-170h-76q-165 0 -249 92t-84 266v164q0 111 -34.5 165t-113.5 60z" />
    <glyph glyph-name="bar" unicode="|" horiz-adv-x="602" 
d="M207 -410v1946h190v-1946h-190z" />
    <glyph glyph-name="braceright" unicode="}" horiz-adv-x="743" 
d="M651 825v-170q-79 -6 -113 -59.5t-34 -165.5v-164q0 -174 -84 -266t-250 -92h-76v170h51q71 0 109.5 55.5t38.5 149.5v206q0 196 176 250v13q-176 57 -176 258v207q0 182 -146 182h-53v170h74q170 0 253 -82.5t83 -253.5v-180q0 -110 34.5 -166t112.5 -62z" />
    <glyph glyph-name="asciitilde" unicode="~" 
d="M991 819l33 -178q-40 -52 -121.5 -98.5t-142.5 -46.5q-56 0 -114 21.5t-98.5 48t-89.5 48t-89 21.5q-98 0 -242 -139l-23 168q52 61 127 109t162 48q55 0 110 -21.5t92.5 -48t83.5 -48t85 -21.5q94 0 227 137z" />
    <glyph glyph-name="uni00A0" unicode="&#xa0;" horiz-adv-x="636" 
 />
    <glyph glyph-name="exclamdown" unicode="&#xa1;" horiz-adv-x="616" 
d="M223 1038h170l29 -1038h-227zM455 1341q0 -62 -43 -104.5t-107 -42.5q-61 0 -104 43t-43 104q0 64 42.5 107t104.5 43q65 0 107.5 -42.5t42.5 -107.5z" />
    <glyph glyph-name="cent" unicode="&#xa2;" horiz-adv-x="1040" 
d="M915 451l-22 -181q-98 -31 -209 -37v-233h-170v238q-180 37 -294 166.5t-114 326.5q0 204 112.5 340t295.5 174v230h172v-226q61 -3 137 -17.5t123 -33.5l-47 -170q-38 17 -112.5 31t-129.5 14q-143 0 -241.5 -91t-98.5 -237q0 -154 97.5 -243.5t242.5 -89.5
q102 0 258 39z" />
    <glyph glyph-name="sterling" unicode="&#xa3;" horiz-adv-x="1308" 
d="M1083 782v-180h-495v-29q0 -71 -16.5 -129.5t-50.5 -106t-71 -82.5t-92 -75h852v-180h-1110v160q141 86 214 187.5t73 242.5v12h-264v180h229q-3 9 -14.5 47t-15.5 52t-13 47.5t-12 54t-6.5 48.5t-3.5 54q0 188 127.5 299t326.5 111q116 0 241 -26t214 -64l-57 -174
q-69 34 -174 59t-191 25q-128 0 -198 -65t-70 -181q0 -22 2.5 -47.5t5 -43.5t10 -50.5t10.5 -45t13 -52t12 -48.5h524z" />
    <glyph glyph-name="yen" unicode="&#xa5;" horiz-adv-x="1482" 
d="M647 2v313h-389v144h389v112l-26 41h-363v146h268l-467 717h250l447 -717h4l434 717h229l-458 -717h260v-146h-353l-26 -41v-112h379v-144h-379v-313h-199z" />
    <glyph glyph-name="brokenbar" unicode="&#xa6;" horiz-adv-x="583" 
d="M197 -410v779h190v-779h-190zM197 799v737h190v-737h-190z" />
    <glyph glyph-name="section" unicode="&#xa7;" horiz-adv-x="1220" 
d="M596 592q65 -17 86 -23q110 9 170.5 46.5t60.5 97.5q0 56 -64.5 92.5t-223.5 77.5q-37 9 -72 18q-113 -7 -175.5 -47.5t-62.5 -103.5q0 -51 64 -85.5t217 -72.5zM567 -23q-234 0 -452 86l43 168q217 -84 409 -84q116 0 187 30.5t71 90.5q0 58 -67.5 90.5t-239.5 73.5
q-199 48 -298 113.5t-99 175.5q0 92 60.5 157.5t168.5 100.5q-151 79 -151 217q0 134 119 215.5t315 81.5q114 0 245 -26t214 -60l-43 -166q-202 82 -410 82q-105 0 -170.5 -31.5t-65.5 -89.5q0 -54 63.5 -85.5t233.5 -74.5q217 -56 312.5 -125t95.5 -174q0 -92 -61 -155.5
t-168 -95.5q151 -87 151 -230q0 -131 -121.5 -208t-341.5 -77z" />
    <glyph glyph-name="dieresis" unicode="&#xa8;" horiz-adv-x="1173" 
d="M184 1763q0 57 41 98.5t101 41.5q56 0 96.5 -41.5t40.5 -98.5q0 -58 -40.5 -97.5t-96.5 -39.5q-60 0 -101 39.5t-41 97.5zM698 1763q0 58 40 99t98 41t99.5 -41.5t41.5 -98.5q0 -58 -41 -97.5t-100 -39.5t-98.5 39.5t-39.5 97.5z" />
    <glyph glyph-name="copyright" unicode="&#xa9;" horiz-adv-x="1634" 
d="M1057 492l-17 -158q-35 -22 -92 -37.5t-117 -15.5q-159 0 -270.5 111.5t-111.5 281.5t111.5 280.5t270.5 110.5q124 0 238 -49l-49 -137q-79 36 -172 36q-98 0 -169 -67.5t-71 -171.5q0 -101 71.5 -172.5t172.5 -71.5q108 0 205 60zM115 682q0 196 96.5 356.5t257.5 250
t350 89.5q140 0 268.5 -53t224.5 -144t153 -221.5t57 -277.5q0 -197 -97 -358t-258 -250.5t-348 -89.5q-189 0 -350 89.5t-257.5 250.5t-96.5 358zM260 682q0 -164 74.5 -294t201.5 -200.5t283 -70.5q155 0 281.5 70.5t201 200.5t74.5 294t-74.5 293.5t-201 199.5t-281.5 70
q-238 0 -398.5 -157.5t-160.5 -405.5z" />
    <glyph glyph-name="ordfeminine" unicode="&#xaa;" horiz-adv-x="1120" 
d="M1044 553h-184l-65 152h-478l-69 -152h-176l438 922h129zM735 844l-172 401l-182 -401h354z" />
    <glyph glyph-name="guillemotleft" unicode="&#xab;" horiz-adv-x="1185" 
d="M104 625l263 399h215l-248 -399l248 -400h-215zM545 625l262 399h215l-248 -399l248 -400h-215z" />
    <glyph glyph-name="logicalnot" unicode="&#xac;" 
d="M113 588v180h880v-496h-184v316h-696z" />
    <glyph glyph-name="registered" unicode="&#xae;" horiz-adv-x="1634" 
d="M1139 340h-168l-144 240h-131v-240h-147v709h287q114 0 192 -63.5t78 -170.5q0 -161 -133 -215zM694 698h148q47 0 79.5 32t32.5 79q0 45 -37 75.5t-88 30.5h-135v-217zM115 682q0 196 96.5 356.5t257.5 250t350 89.5q140 0 268.5 -53t224.5 -144t153 -221.5t57 -277.5
q0 -197 -97 -358t-258 -250.5t-348 -89.5q-189 0 -350 89.5t-257.5 250.5t-96.5 358zM260 682q0 -164 74.5 -294t201.5 -200.5t283 -70.5q155 0 281.5 70.5t201 200.5t74.5 294t-74.5 293.5t-201 199.5t-281.5 70q-238 0 -398.5 -157.5t-160.5 -405.5z" />
    <glyph glyph-name="macron" unicode="&#xaf;" horiz-adv-x="1075" 
d="M137 1686v176h799v-176h-799z" />
    <glyph glyph-name="degree" unicode="&#xb0;" horiz-adv-x="841" 
d="M117 1114q0 129 87 218t216 89q128 0 217.5 -89t89.5 -218q0 -126 -89.5 -214.5t-217.5 -88.5q-129 0 -216 87.5t-87 215.5zM256 1114q0 -72 46.5 -122t117.5 -50q69 0 118.5 50.5t49.5 121.5t-49.5 123.5t-118.5 52.5q-71 0 -117.5 -52t-46.5 -124z" />
    <glyph glyph-name="plusminus" unicode="&#xb1;" 
d="M653 727v-262h-184v262h-367v180h367v297h184v-297h371v-180h-371zM1024 156h-922v180h922v-180z" />
    <glyph glyph-name="twosuperior" unicode="&#xb2;" horiz-adv-x="970" 
d="M147 621v112l312 262q81 67 118 119.5t37 106.5q0 63 -42 97t-117 34q-135 0 -291 -99l16 166q132 76 297 76q140 0 229 -71t89 -189q0 -91 -55 -168t-177 -170l-168 -133h447l-39 -143h-656z" />
    <glyph glyph-name="threesuperior" unicode="&#xb3;" horiz-adv-x="952" 
d="M463 604q-184 0 -344 74l45 139q131 -67 274 -67q106 0 159.5 42t53.5 111q0 135 -207 135h-147l278 293h-411l37 144h590v-115l-230 -215q132 -18 201 -85t69 -169q0 -128 -103 -207.5t-265 -79.5z" />
    <glyph glyph-name="acute" unicode="&#xb4;" horiz-adv-x="1536" 
d="M512 1595l291 387h252l-361 -387h-182z" />
    <glyph glyph-name="paragraph" unicode="&#xb6;" 
d="M682 506h-90q-147 0 -268 59.5t-193 171t-72 254.5t72 254.5t193 170.5t268 59h436v-181h-135v-1386h-211v598z" />
    <glyph glyph-name="periodcentered" unicode="&#xb7;" horiz-adv-x="618" 
d="M154 655q0 66 45 111t112 45q65 0 111.5 -45.5t46.5 -110.5q0 -68 -46 -111.5t-112 -43.5q-68 0 -112.5 43.5t-44.5 111.5z" />
    <glyph glyph-name="cedilla" unicode="&#xb8;" horiz-adv-x="0" 
d="M-92 45h149l-84 -182q194 -12 296 -84.5t102 -190.5q0 -131 -102.5 -204.5t-252.5 -73.5q-132 0 -252 35l-32 143q40 -14 110.5 -26.5t134.5 -12.5q93 0 148 31.5t55 91.5q0 147 -389 147z" />
    <glyph glyph-name="onesuperior" unicode="&#xb9;" horiz-adv-x="636" 
d="M463 621h-170v710l-215 -47v148l385 81v-892z" />
    <glyph glyph-name="ordmasculine" unicode="&#xba;" horiz-adv-x="1198" 
d="M1096 1018q0 -198 -144.5 -333.5t-351.5 -135.5q-135 0 -248.5 59.5t-180.5 167t-67 238.5q0 132 66 242.5t180 174.5t250 64q206 0 351 -138.5t145 -338.5zM918 1018q0 139 -91.5 234.5t-228.5 95.5q-131 0 -224 -98.5t-93 -235.5t90.5 -226.5t228.5 -89.5
q136 0 227 91.5t91 228.5z" />
    <glyph glyph-name="guillemotright" unicode="&#xbb;" horiz-adv-x="1196" 
d="M379 1024l262 -399l-262 -400h-215l248 400l-248 399h215zM829 1024l263 -399l-263 -400h-215l248 400l-248 399h215z" />
    <glyph glyph-name="onequarter" unicode="&#xbc;" horiz-adv-x="1927" 
d="M1442 1475l-924 -1475h-174l911 1475h187zM483 621h-170v710l-215 -47v148l385 81v-892zM1796 152h-131v-152h-164v152h-495v137l510 565h149v-567h170zM1501 287v358l-323 -358h323z" />
    <glyph glyph-name="onehalf" unicode="&#xbd;" horiz-adv-x="1937" 
d="M1417 1475l-923 -1475h-175l912 1475h186zM469 621h-170v710l-215 -47v148l385 81v-892zM1147 0v113l311 262q81 67 118.5 119t37.5 106q0 63 -42.5 97t-117.5 34q-137 0 -291 -98l17 166q130 75 297 75q140 0 228.5 -71t88.5 -189q0 -91 -54.5 -168t-176.5 -170
l-168 -133h446l-39 -143h-655z" />
    <glyph glyph-name="threequarters" unicode="&#xbe;" horiz-adv-x="2004" 
d="M1599 1475l-923 -1475h-174l911 1475h186zM457 604q-184 0 -344 74l45 139q131 -67 274 -67q106 0 159.5 42t53.5 111q0 135 -207 135h-147l278 293h-411l37 144h589v-115l-229 -215q132 -18 201 -85t69 -169q0 -128 -103 -207.5t-265 -79.5zM1874 152h-131v-152h-164
v152h-496v137l510 565h150v-567h170zM1579 287v358l-324 -358h324z" />
    <glyph glyph-name="questiondown" unicode="&#xbf;" horiz-adv-x="1036" 
d="M961 281l-21 -201q-183 -103 -391 -103q-203 0 -335 113.5t-132 300.5q0 74 24 137t62 106.5t84.5 80.5t93 67t84.5 58t62 60.5t24 68.5q0 38 -8 65h174q29 -64 29 -121q0 -49 -22.5 -90.5t-58 -72.5t-79 -60t-87 -58.5t-79 -62t-58 -76.5t-22.5 -96q0 -112 73.5 -176.5
t201.5 -64.5q95 0 196 34.5t185 90.5zM762 1333q0 -66 -45.5 -110.5t-112.5 -44.5q-65 0 -111.5 45t-46.5 110q0 68 46 112t112 44q68 0 113 -44t45 -112z" />
    <glyph glyph-name="Agrave" unicode="&#xc0;" horiz-adv-x="1568" 
d="M1130 1305q-193 -134 -368 -342t-313 -455h698v797h-17zM223 0h-211q121 376 348.5 731.5t501.5 571.5l-119 -3h-417l63 175h973v-1475h-215v334h-789q-78 -164 -135 -334zM1020 1595l-361 387h252l291 -387h-182z" />
    <glyph glyph-name="Aacute" unicode="&#xc1;" horiz-adv-x="1568" 
d="M1130 1305q-193 -134 -368 -342t-313 -455h698v797h-17zM223 0h-211q121 376 348.5 731.5t501.5 571.5l-119 -3h-417l63 175h973v-1475h-215v334h-789q-78 -164 -135 -334zM930 1595l291 387h252l-361 -387h-182z" />
    <glyph glyph-name="Acircumflex" unicode="&#xc2;" horiz-adv-x="1568" 
d="M1130 1305q-193 -134 -368 -342t-313 -455h698v797h-17zM223 0h-211q121 376 348.5 731.5t501.5 571.5l-119 -3h-417l63 175h973v-1475h-215v334h-789q-78 -164 -135 -334zM1001 1985h138l391 -390h-236l-225 246l-219 -246h-240z" />
    <glyph glyph-name="Atilde" unicode="&#xc3;" horiz-adv-x="1568" 
d="M1130 1305q-193 -134 -368 -342t-313 -455h698v797h-17zM223 0h-211q121 376 348.5 731.5t501.5 571.5l-119 -3h-417l63 175h973v-1475h-215v334h-789q-78 -164 -135 -334zM1391 1960l45 -164q-37 -68 -102.5 -121t-135.5 -53q-49 0 -103.5 29t-93.5 64t-83.5 64
t-77.5 29q-101 0 -205 -161l-39 157q39 69 107.5 126t148.5 57q50 0 102.5 -29t90 -64.5t80.5 -64.5t75 -29q98 0 191 160z" />
    <glyph glyph-name="Adieresis" unicode="&#xc4;" horiz-adv-x="1568" 
d="M1130 1305q-193 -134 -368 -342t-313 -455h698v797h-17zM223 0h-211q121 376 348.5 731.5t501.5 571.5l-119 -3h-417l63 175h973v-1475h-215v334h-789q-78 -164 -135 -334zM674 1763q0 58 41 99t100 41q56 0 96.5 -41.5t40.5 -98.5q0 -58 -40.5 -97.5t-96.5 -39.5
q-60 0 -100.5 39.5t-40.5 97.5zM1188 1763q0 58 39.5 99t97.5 41t99.5 -41.5t41.5 -98.5q0 -58 -41 -97.5t-100 -39.5t-98 39t-39 98z" />
    <glyph glyph-name="Aring" unicode="&#xc5;" horiz-adv-x="1568" 
d="M1130 1305q-193 -134 -368 -342t-313 -455h698v797h-17zM223 0h-211q121 376 348.5 731.5t501.5 571.5l-119 -3h-417l63 175h973v-1475h-215v334h-789q-78 -164 -135 -334zM778 1886q0 120 85.5 206.5t205.5 86.5t206.5 -86.5t86.5 -206.5q0 -119 -86.5 -205t-206.5 -86
t-205.5 86t-85.5 205zM918 1886q0 -64 43 -107.5t108 -43.5t109.5 43.5t44.5 107.5t-44.5 109t-109.5 45q-64 0 -107.5 -44.5t-43.5 -109.5z" />
    <glyph glyph-name="AE" unicode="&#xc6;" horiz-adv-x="2410" 
d="M1124 1300q-193 -134 -367.5 -340.5t-312.5 -451.5h568q-25 92 -25 190q0 183 70.5 338t197.5 264h-131zM1847 -20q-251 0 -452 92t-308 262h-733q-78 -164 -135 -334h-211q123 378 355.5 736.5t498.5 563.5h-520l64 175h1202q87 20 192 20q281 0 529 -100l-60 -172
q-222 92 -461 92t-399.5 -139t-196.5 -365h816l-25 -172h-795q25 -227 196 -352t449 -125q114 0 235.5 24t211.5 58l-27 -193q-83 -30 -198 -50.5t-228 -20.5z" />
    <glyph glyph-name="Ccedilla" unicode="&#xc7;" horiz-adv-x="1480" 
d="M930 -20h-6l-54 -117q194 -12 296 -84.5t102 -190.5q0 -131 -102.5 -204.5t-252.5 -73.5q-131 0 -251 35l-33 143q40 -14 110.5 -26.5t134.5 -12.5q93 0 148 31.5t55 91.5q0 147 -389 147l96 271q-141 21 -263.5 81t-213.5 150t-143.5 214.5t-52.5 266.5q0 171 65 320
t175 252t259 162t314 59q120 0 254 -27t239 -71l-57 -178q-211 92 -428 92q-168 0 -305.5 -79t-215 -214.5t-77.5 -298.5q0 -165 81.5 -292.5t218.5 -195t304 -67.5q227 0 448 108l-24 -202q-85 -40 -201.5 -65t-230.5 -25z" />
    <glyph glyph-name="Egrave" unicode="&#xc8;" horiz-adv-x="1533" 
d="M971 -20q-147 0 -278 31t-237.5 92.5t-183.5 147.5t-119 200.5t-42 246.5q0 227 107 410t293 285t413 102q280 0 528 -100l-59 -172q-222 92 -461 92q-235 0 -399.5 -140t-198.5 -364h817l-25 -172h-794q20 -221 192.5 -349t452.5 -128q222 0 446 82l-24 -193
q-89 -32 -204.5 -51.5t-223.5 -19.5zM868 1595l-360 387h252l291 -387h-183z" />
    <glyph glyph-name="Eacute" unicode="&#xc9;" horiz-adv-x="1533" 
d="M971 -20q-147 0 -278 31t-237.5 92.5t-183.5 147.5t-119 200.5t-42 246.5q0 227 107 410t293 285t413 102q280 0 528 -100l-59 -172q-222 92 -461 92q-235 0 -399.5 -140t-198.5 -364h817l-25 -172h-794q20 -221 192.5 -349t452.5 -128q222 0 446 82l-24 -193
q-89 -32 -204.5 -51.5t-223.5 -19.5zM778 1595l291 387h252l-360 -387h-183z" />
    <glyph glyph-name="Ecircumflex" unicode="&#xca;" horiz-adv-x="1533" 
d="M971 -20q-147 0 -278 31t-237.5 92.5t-183.5 147.5t-119 200.5t-42 246.5q0 227 107 410t293 285t413 102q280 0 528 -100l-59 -172q-222 92 -461 92q-235 0 -399.5 -140t-198.5 -364h817l-25 -172h-794q20 -221 192.5 -349t452.5 -128q222 0 446 82l-24 -193
q-89 -32 -204.5 -51.5t-223.5 -19.5zM850 1985h137l391 -390h-235l-225 246l-220 -246h-239z" />
    <glyph glyph-name="Edieresis" unicode="&#xcb;" horiz-adv-x="1533" 
d="M971 -20q-147 0 -278 31t-237.5 92.5t-183.5 147.5t-119 200.5t-42 246.5q0 227 107 410t293 285t413 102q280 0 528 -100l-59 -172q-222 92 -461 92q-235 0 -399.5 -140t-198.5 -364h817l-25 -172h-794q20 -221 192.5 -349t452.5 -128q222 0 446 82l-24 -193
q-89 -32 -204.5 -51.5t-223.5 -19.5zM522 1763q0 57 41 98.5t101 41.5q56 0 96.5 -41.5t40.5 -98.5q0 -58 -40.5 -97.5t-96.5 -39.5q-60 0 -101 39.5t-41 97.5zM1036 1763q0 58 40 99t98 41t99.5 -41.5t41.5 -98.5q0 -58 -41 -97.5t-100 -39.5t-98.5 39.5t-39.5 97.5z" />
    <glyph glyph-name="Igrave" unicode="&#xcc;" horiz-adv-x="628" 
d="M422 1475v-1475h-215v1475h215zM307 1595l-360 387h252l290 -387h-182z" />
    <glyph glyph-name="Iacute" unicode="&#xcd;" horiz-adv-x="628" 
d="M422 1475v-1475h-215v1475h215zM176 1595l291 387h252l-361 -387h-182z" />
    <glyph glyph-name="Icircumflex" unicode="&#xce;" horiz-adv-x="628" 
d="M422 1475v-1475h-215v1475h215zM268 1985h138l391 -390h-236l-225 246l-219 -246h-240z" />
    <glyph glyph-name="Idieresis" unicode="&#xcf;" horiz-adv-x="628" 
d="M422 1475v-1475h-215v1475h215zM-59 1763q0 58 41 99t100 41q56 0 96.5 -41.5t40.5 -98.5q0 -58 -40.5 -97.5t-96.5 -39.5q-60 0 -100.5 39.5t-40.5 97.5zM455 1763q0 58 39.5 99t97.5 41t99.5 -41.5t41.5 -98.5q0 -58 -41 -97.5t-100 -39.5q-58 0 -97.5 39t-39.5 98z
" />
    <glyph glyph-name="Eth" unicode="&#xd0;" horiz-adv-x="1755" 
d="M258 0v641h-221v180h221v654h537q177 0 331.5 -48.5t270 -138t182 -225.5t66.5 -301q0 -174 -65 -318.5t-179.5 -241t-270 -149.5t-335.5 -53h-537zM475 180h307q286 0 462.5 159.5t176.5 422.5q0 163 -83 284.5t-227 184.5t-329 63h-307v-473h483v-180h-483v-461z" />
    <glyph glyph-name="Ntilde" unicode="&#xd1;" horiz-adv-x="1773" 
d="M207 0v1475h182l975 -1141v1141h205v-1475h-185l-972 1133v-1133h-205zM1303 1960l45 -164q-37 -68 -102.5 -121t-135.5 -53q-49 0 -103.5 29t-93.5 64t-83.5 64t-77.5 29q-101 0 -205 -161l-39 157q39 69 107.5 126t148.5 57q50 0 102.5 -29t90 -64.5t80.5 -64.5t75 -29
q98 0 191 160z" />
    <glyph glyph-name="Ograve" unicode="&#xd2;" horiz-adv-x="1824" 
d="M913 -20q-165 0 -312.5 56t-255.5 154t-171 237.5t-63 299.5q0 161 62.5 303.5t169.5 244.5t255 161t313 59t313 -58.5t256 -158.5t171 -242.5t63 -302.5q0 -158 -63 -298.5t-170 -240t-255 -157t-313 -57.5zM913 162q163 0 295.5 73t208.5 204t76 294q0 124 -45.5 232.5
t-123 185t-185 120.5t-228.5 44t-228.5 -46.5t-183.5 -125t-120.5 -187t-44.5 -229.5q0 -165 76 -294.5t208 -200t295 -70.5zM854 1595l-360 387h251l291 -387h-182z" />
    <glyph glyph-name="Oacute" unicode="&#xd3;" horiz-adv-x="1824" 
d="M913 -20q-165 0 -312.5 56t-255.5 154t-171 237.5t-63 299.5q0 161 62.5 303.5t169.5 244.5t255 161t313 59t313 -58.5t256 -158.5t171 -242.5t63 -302.5q0 -158 -63 -298.5t-170 -240t-255 -157t-313 -57.5zM913 162q163 0 295.5 73t208.5 204t76 294q0 124 -45.5 232.5
t-123 185t-185 120.5t-228.5 44t-228.5 -46.5t-183.5 -125t-120.5 -187t-44.5 -229.5q0 -165 76 -294.5t208 -200t295 -70.5zM764 1595l291 387h252l-361 -387h-182z" />
    <glyph glyph-name="Ocircumflex" unicode="&#xd4;" horiz-adv-x="1824" 
d="M913 -20q-165 0 -312.5 56t-255.5 154t-171 237.5t-63 299.5q0 161 62.5 303.5t169.5 244.5t255 161t313 59t313 -58.5t256 -158.5t171 -242.5t63 -302.5q0 -158 -63 -298.5t-170 -240t-255 -157t-313 -57.5zM913 162q163 0 295.5 73t208.5 204t76 294q0 124 -45.5 232.5
t-123 185t-185 120.5t-228.5 44t-228.5 -46.5t-183.5 -125t-120.5 -187t-44.5 -229.5q0 -165 76 -294.5t208 -200t295 -70.5zM836 1985h137l391 -390h-236l-225 246l-219 -246h-240z" />
    <glyph glyph-name="Otilde" unicode="&#xd5;" horiz-adv-x="1824" 
d="M913 -20q-165 0 -312.5 56t-255.5 154t-171 237.5t-63 299.5q0 161 62.5 303.5t169.5 244.5t255 161t313 59t313 -58.5t256 -158.5t171 -242.5t63 -302.5q0 -158 -63 -298.5t-170 -240t-255 -157t-313 -57.5zM913 162q163 0 295.5 73t208.5 204t76 294q0 124 -45.5 232.5
t-123 185t-185 120.5t-228.5 44t-228.5 -46.5t-183.5 -125t-120.5 -187t-44.5 -229.5q0 -165 76 -294.5t208 -200t295 -70.5zM1286 1960l45 -164q-37 -68 -102 -121t-135 -53q-41 0 -83.5 19t-78 46.5t-69.5 55t-67.5 46.5t-60.5 19q-101 0 -205 -161l-38 157
q39 69 107.5 126t148.5 57q50 0 102.5 -29t90 -64.5t80.5 -64.5t75 -29q97 0 190 160z" />
    <glyph glyph-name="Odieresis" unicode="&#xd6;" horiz-adv-x="1824" 
d="M913 -20q-165 0 -312.5 56t-255.5 154t-171 237.5t-63 299.5q0 161 62.5 303.5t169.5 244.5t255 161t313 59t313 -58.5t256 -158.5t171 -242.5t63 -302.5q0 -158 -63 -298.5t-170 -240t-255 -157t-313 -57.5zM913 162q163 0 295.5 73t208.5 204t76 294q0 124 -45.5 232.5
t-123 185t-185 120.5t-228.5 44t-228.5 -46.5t-183.5 -125t-120.5 -187t-44.5 -229.5q0 -165 76 -294.5t208 -200t295 -70.5zM508 1763q0 58 41 99t100 41q56 0 96.5 -41.5t40.5 -98.5q0 -58 -40.5 -97.5t-96.5 -39.5q-60 0 -100.5 39.5t-40.5 97.5zM1022 1763q0 58 39.5 99
t97.5 41t99.5 -41.5t41.5 -98.5q0 -58 -41 -97.5t-100 -39.5t-98 39t-39 98z" />
    <glyph glyph-name="multiply" unicode="&#xd7;" 
d="M690 649l316 -315l-127 -125l-316 313l-317 -315l-127 127l317 317l-313 312l127 124l313 -311l316 316l127 -127z" />
    <glyph glyph-name="Oslash" unicode="&#xd8;" horiz-adv-x="1830" 
d="M915 -20q-221 0 -413 100l-66 -80h-241l155 188q-113 102 -175 240t-62 299t62.5 303.5t169.5 244.5t255 161t313 59q230 0 422 -109l74 89h240l-164 -199q110 -105 170.5 -244t60.5 -299q0 -158 -63 -298.5t-170 -240t-255 -157t-313 -57.5zM336 727q0 -229 141 -383
l735 893q-137 78 -299 78q-121 0 -228.5 -46.5t-183.5 -125t-120.5 -187t-44.5 -229.5zM915 162q163 0 295.5 73t208.5 204t76 294q0 227 -139 385l-729 -887q129 -69 288 -69z" />
    <glyph glyph-name="Ugrave" unicode="&#xd9;" horiz-adv-x="1665" 
d="M836 -20q-299 0 -475.5 176.5t-176.5 482.5v836h217v-826q0 -226 116 -352.5t325 -126.5q205 0 319.5 127t114.5 352v826h205v-836q0 -303 -177 -481t-468 -178zM809 1595l-360 387h251l291 -387h-182z" />
    <glyph glyph-name="Uacute" unicode="&#xda;" horiz-adv-x="1665" 
d="M836 -20q-299 0 -475.5 176.5t-176.5 482.5v836h217v-826q0 -226 116 -352.5t325 -126.5q205 0 319.5 127t114.5 352v826h205v-836q0 -303 -177 -481t-468 -178zM719 1595l291 387h252l-361 -387h-182z" />
    <glyph glyph-name="Ucircumflex" unicode="&#xdb;" horiz-adv-x="1665" 
d="M836 -20q-299 0 -475.5 176.5t-176.5 482.5v836h217v-826q0 -226 116 -352.5t325 -126.5q205 0 319.5 127t114.5 352v826h205v-836q0 -303 -177 -481t-468 -178zM791 1985h137l391 -390h-236l-225 246l-219 -246h-240z" />
    <glyph glyph-name="Udieresis" unicode="&#xdc;" horiz-adv-x="1665" 
d="M836 -20q-299 0 -475.5 176.5t-176.5 482.5v836h217v-826q0 -226 116 -352.5t325 -126.5q205 0 319.5 127t114.5 352v826h205v-836q0 -303 -177 -481t-468 -178zM463 1763q0 58 41 99t100 41q56 0 96.5 -41.5t40.5 -98.5q0 -58 -40.5 -97.5t-96.5 -39.5
q-60 0 -100.5 39.5t-40.5 97.5zM977 1763q0 58 39.5 99t97.5 41t99.5 -41.5t41.5 -98.5q0 -58 -41 -97.5t-100 -39.5q-58 0 -97.5 39t-39.5 98z" />
    <glyph glyph-name="Yacute" unicode="&#xdd;" horiz-adv-x="1601" 
d="M702 2v582l-661 891h252l518 -699l512 699h229l-651 -891v-582h-199zM666 1595l290 387h252l-360 -387h-182z" />
    <glyph glyph-name="Thorn" unicode="&#xde;" horiz-adv-x="1480" 
d="M207 0v1475h215v-277h379q270 0 425.5 -115t155.5 -335q0 -221 -156.5 -342t-424.5 -121h-379v-285h-215zM422 463h385q170 0 261 74.5t91 207.5t-93 204t-269 71h-375v-557z" />
    <glyph glyph-name="agrave" unicode="&#xe0;" horiz-adv-x="1568" 
d="M1130 1305q-193 -134 -368 -342t-313 -455h698v797h-17zM223 0h-211q121 376 348.5 731.5t501.5 571.5l-119 -3h-417l63 175h973v-1475h-215v334h-789q-78 -164 -135 -334zM1020 1595l-361 387h252l291 -387h-182z" />
    <glyph glyph-name="aacute" unicode="&#xe1;" horiz-adv-x="1568" 
d="M1130 1305q-193 -134 -368 -342t-313 -455h698v797h-17zM223 0h-211q121 376 348.5 731.5t501.5 571.5l-119 -3h-417l63 175h973v-1475h-215v334h-789q-78 -164 -135 -334zM930 1595l291 387h252l-361 -387h-182z" />
    <glyph glyph-name="acircumflex" unicode="&#xe2;" horiz-adv-x="1568" 
d="M1130 1305q-193 -134 -368 -342t-313 -455h698v797h-17zM223 0h-211q121 376 348.5 731.5t501.5 571.5l-119 -3h-417l63 175h973v-1475h-215v334h-789q-78 -164 -135 -334zM1001 1985h138l391 -390h-236l-225 246l-219 -246h-240z" />
    <glyph glyph-name="atilde" unicode="&#xe3;" horiz-adv-x="1568" 
d="M1130 1305q-193 -134 -368 -342t-313 -455h698v797h-17zM223 0h-211q121 376 348.5 731.5t501.5 571.5l-119 -3h-417l63 175h973v-1475h-215v334h-789q-78 -164 -135 -334zM1452 1960l45 -164q-37 -68 -102 -121t-135 -53q-41 0 -83.5 19t-78 46.5t-69.5 55t-67.5 46.5
t-60.5 19q-101 0 -205 -161l-39 157q39 69 107.5 126t148.5 57q41 0 83 -19.5t76 -46.5t66.5 -54.5t64.5 -47t59 -19.5q97 0 190 160z" />
    <glyph glyph-name="adieresis" unicode="&#xe4;" horiz-adv-x="1568" 
d="M1130 1305q-193 -134 -368 -342t-313 -455h698v797h-17zM223 0h-211q121 376 348.5 731.5t501.5 571.5l-119 -3h-417l63 175h973v-1475h-215v334h-789q-78 -164 -135 -334zM674 1763q0 58 41 99t100 41q56 0 96.5 -41.5t40.5 -98.5q0 -58 -40.5 -97.5t-96.5 -39.5
q-60 0 -100.5 39.5t-40.5 97.5zM1188 1763q0 58 39.5 99t97.5 41t99.5 -41.5t41.5 -98.5q0 -58 -41 -97.5t-100 -39.5t-98 39t-39 98z" />
    <glyph glyph-name="aring" unicode="&#xe5;" horiz-adv-x="1568" 
d="M1130 1305q-193 -134 -368 -342t-313 -455h698v797h-17zM223 0h-211q121 376 348.5 731.5t501.5 571.5l-119 -3h-417l63 175h973v-1475h-215v334h-789q-78 -164 -135 -334zM778 1886q0 120 85.5 206.5t205.5 86.5t206.5 -86.5t86.5 -206.5q0 -119 -86.5 -205t-206.5 -86
t-205.5 86t-85.5 205zM918 1886q0 -64 43 -107.5t108 -43.5t109.5 43.5t44.5 107.5t-44.5 109t-109.5 45q-64 0 -107.5 -44.5t-43.5 -109.5z" />
    <glyph glyph-name="ae" unicode="&#xe6;" horiz-adv-x="2410" 
d="M1124 1300q-193 -134 -367.5 -340.5t-312.5 -451.5h568q-25 92 -25 190q0 183 70.5 338t197.5 264h-131zM1847 -20q-251 0 -452 92t-308 262h-733q-78 -164 -135 -334h-211q123 378 355.5 736.5t498.5 563.5h-520l64 175h1202q87 20 192 20q281 0 529 -100l-60 -172
q-222 92 -461 92t-399.5 -139t-196.5 -365h816l-25 -172h-795q25 -227 196 -352t449 -125q114 0 235.5 24t211.5 58l-27 -193q-83 -30 -198 -50.5t-228 -20.5z" />
    <glyph glyph-name="ccedilla" unicode="&#xe7;" horiz-adv-x="1480" 
d="M930 -20h-6l-54 -117q194 -12 296 -84.5t102 -190.5q0 -131 -102.5 -204.5t-252.5 -73.5q-131 0 -251 35l-33 143q40 -14 110.5 -26.5t134.5 -12.5q93 0 148 31.5t55 91.5q0 147 -389 147l96 271q-141 21 -263.5 81t-213.5 150t-143.5 214.5t-52.5 266.5q0 171 65 320
t175 252t259 162t314 59q120 0 254 -27t239 -71l-57 -178q-211 92 -428 92q-168 0 -305.5 -79t-215 -214.5t-77.5 -298.5q0 -165 81.5 -292.5t218.5 -195t304 -67.5q227 0 448 108l-24 -202q-85 -40 -201.5 -65t-230.5 -25z" />
    <glyph glyph-name="egrave" unicode="&#xe8;" horiz-adv-x="1533" 
d="M971 -20q-147 0 -278 31t-237.5 92.5t-183.5 147.5t-119 200.5t-42 246.5q0 227 107 410t293 285t413 102q280 0 528 -100l-59 -172q-222 92 -461 92q-235 0 -399.5 -140t-198.5 -364h817l-25 -172h-794q20 -221 192.5 -349t452.5 -128q222 0 446 82l-24 -193
q-89 -32 -204.5 -51.5t-223.5 -19.5zM868 1595l-360 387h252l291 -387h-183z" />
    <glyph glyph-name="eacute" unicode="&#xe9;" horiz-adv-x="1533" 
d="M971 -20q-147 0 -278 31t-237.5 92.5t-183.5 147.5t-119 200.5t-42 246.5q0 227 107 410t293 285t413 102q280 0 528 -100l-59 -172q-222 92 -461 92q-235 0 -399.5 -140t-198.5 -364h817l-25 -172h-794q20 -221 192.5 -349t452.5 -128q222 0 446 82l-24 -193
q-89 -32 -204.5 -51.5t-223.5 -19.5zM778 1595l291 387h252l-360 -387h-183z" />
    <glyph glyph-name="ecircumflex" unicode="&#xea;" horiz-adv-x="1533" 
d="M971 -20q-147 0 -278 31t-237.5 92.5t-183.5 147.5t-119 200.5t-42 246.5q0 227 107 410t293 285t413 102q280 0 528 -100l-59 -172q-222 92 -461 92q-235 0 -399.5 -140t-198.5 -364h817l-25 -172h-794q20 -221 192.5 -349t452.5 -128q222 0 446 82l-24 -193
q-89 -32 -204.5 -51.5t-223.5 -19.5zM850 1985h137l391 -390h-235l-225 246l-220 -246h-239z" />
    <glyph glyph-name="edieresis" unicode="&#xeb;" horiz-adv-x="1533" 
d="M971 -20q-147 0 -278 31t-237.5 92.5t-183.5 147.5t-119 200.5t-42 246.5q0 227 107 410t293 285t413 102q280 0 528 -100l-59 -172q-222 92 -461 92q-235 0 -399.5 -140t-198.5 -364h817l-25 -172h-794q20 -221 192.5 -349t452.5 -128q222 0 446 82l-24 -193
q-89 -32 -204.5 -51.5t-223.5 -19.5zM522 1763q0 57 41 98.5t101 41.5q56 0 96.5 -41.5t40.5 -98.5q0 -58 -40.5 -97.5t-96.5 -39.5q-60 0 -101 39.5t-41 97.5zM1036 1763q0 58 40 99t98 41t99.5 -41.5t41.5 -98.5q0 -58 -41 -97.5t-100 -39.5t-98.5 39.5t-39.5 97.5z" />
    <glyph glyph-name="igrave" unicode="&#xec;" horiz-adv-x="628" 
d="M422 1475v-1475h-215v1475h215zM287 1595l-361 387h252l291 -387h-182z" />
    <glyph glyph-name="iacute" unicode="&#xed;" horiz-adv-x="628" 
d="M422 1475v-1475h-215v1475h215zM197 1595l290 387h252l-360 -387h-182z" />
    <glyph glyph-name="icircumflex" unicode="&#xee;" horiz-adv-x="628" 
d="M422 1475v-1475h-215v1475h215zM268 1985h138l391 -390h-236l-225 246l-219 -246h-240z" />
    <glyph glyph-name="idieresis" unicode="&#xef;" horiz-adv-x="628" 
d="M422 1475v-1475h-215v1475h215zM-59 1763q0 58 41 99t100 41q56 0 96.5 -41.5t40.5 -98.5q0 -58 -40.5 -97.5t-96.5 -39.5q-60 0 -100.5 39.5t-40.5 97.5zM455 1763q0 58 39.5 99t97.5 41t99.5 -41.5t41.5 -98.5q0 -58 -41 -97.5t-100 -39.5q-58 0 -97.5 39t-39.5 98z
" />
    <glyph glyph-name="eth" unicode="&#xf0;" horiz-adv-x="1755" 
d="M258 0v641h-221v180h221v654h537q177 0 331.5 -48.5t270 -138t182 -225.5t66.5 -301q0 -174 -65 -318.5t-179.5 -241t-270 -149.5t-335.5 -53h-537zM475 180h307q286 0 462.5 159.5t176.5 422.5q0 163 -83 284.5t-227 184.5t-329 63h-307v-473h483v-180h-483v-461z" />
    <glyph glyph-name="ntilde" unicode="&#xf1;" horiz-adv-x="1773" 
d="M207 0v1475h182l975 -1141v1141h205v-1475h-185l-972 1133v-1133h-205zM1303 1960l45 -164q-37 -68 -102.5 -121t-135.5 -53q-49 0 -103.5 29t-93.5 64t-83.5 64t-77.5 29q-101 0 -205 -161l-39 157q39 69 107.5 126t148.5 57q50 0 102.5 -29t90 -64.5t80.5 -64.5t75 -29
q98 0 191 160z" />
    <glyph glyph-name="ograve" unicode="&#xf2;" horiz-adv-x="1824" 
d="M913 -20q-165 0 -312.5 56t-255.5 154t-171 237.5t-63 299.5q0 161 62.5 303.5t169.5 244.5t255 161t313 59t313 -58.5t256 -158.5t171 -242.5t63 -302.5q0 -158 -63 -298.5t-170 -240t-255 -157t-313 -57.5zM913 162q163 0 295.5 73t208.5 204t76 294q0 124 -45.5 232.5
t-123 185t-185 120.5t-228.5 44t-228.5 -46.5t-183.5 -125t-120.5 -187t-44.5 -229.5q0 -165 76 -294.5t208 -200t295 -70.5zM854 1595l-360 387h251l291 -387h-182z" />
    <glyph glyph-name="oacute" unicode="&#xf3;" horiz-adv-x="1824" 
d="M913 -20q-165 0 -312.5 56t-255.5 154t-171 237.5t-63 299.5q0 161 62.5 303.5t169.5 244.5t255 161t313 59t313 -58.5t256 -158.5t171 -242.5t63 -302.5q0 -158 -63 -298.5t-170 -240t-255 -157t-313 -57.5zM913 162q163 0 295.5 73t208.5 204t76 294q0 124 -45.5 232.5
t-123 185t-185 120.5t-228.5 44t-228.5 -46.5t-183.5 -125t-120.5 -187t-44.5 -229.5q0 -165 76 -294.5t208 -200t295 -70.5zM764 1595l291 387h252l-361 -387h-182z" />
    <glyph glyph-name="ocircumflex" unicode="&#xf4;" horiz-adv-x="1824" 
d="M913 -20q-165 0 -312.5 56t-255.5 154t-171 237.5t-63 299.5q0 161 62.5 303.5t169.5 244.5t255 161t313 59t313 -58.5t256 -158.5t171 -242.5t63 -302.5q0 -158 -63 -298.5t-170 -240t-255 -157t-313 -57.5zM913 162q163 0 295.5 73t208.5 204t76 294q0 124 -45.5 232.5
t-123 185t-185 120.5t-228.5 44t-228.5 -46.5t-183.5 -125t-120.5 -187t-44.5 -229.5q0 -165 76 -294.5t208 -200t295 -70.5zM836 1985h137l391 -390h-236l-225 246l-219 -246h-240z" />
    <glyph glyph-name="otilde" unicode="&#xf5;" horiz-adv-x="1824" 
d="M913 -20q-165 0 -312.5 56t-255.5 154t-171 237.5t-63 299.5q0 161 62.5 303.5t169.5 244.5t255 161t313 59t313 -58.5t256 -158.5t171 -242.5t63 -302.5q0 -158 -63 -298.5t-170 -240t-255 -157t-313 -57.5zM913 162q163 0 295.5 73t208.5 204t76 294q0 124 -45.5 232.5
t-123 185t-185 120.5t-228.5 44t-228.5 -46.5t-183.5 -125t-120.5 -187t-44.5 -229.5q0 -165 76 -294.5t208 -200t295 -70.5zM1286 1960l45 -164q-37 -68 -102 -121t-135 -53q-41 0 -83.5 19t-78 46.5t-69.5 55t-67.5 46.5t-60.5 19q-101 0 -205 -161l-38 157
q39 69 107.5 126t148.5 57q50 0 102.5 -29t90 -64.5t80.5 -64.5t75 -29q97 0 190 160z" />
    <glyph glyph-name="odieresis" unicode="&#xf6;" horiz-adv-x="1824" 
d="M913 -20q-165 0 -312.5 56t-255.5 154t-171 237.5t-63 299.5q0 161 62.5 303.5t169.5 244.5t255 161t313 59t313 -58.5t256 -158.5t171 -242.5t63 -302.5q0 -158 -63 -298.5t-170 -240t-255 -157t-313 -57.5zM913 162q163 0 295.5 73t208.5 204t76 294q0 124 -45.5 232.5
t-123 185t-185 120.5t-228.5 44t-228.5 -46.5t-183.5 -125t-120.5 -187t-44.5 -229.5q0 -165 76 -294.5t208 -200t295 -70.5zM508 1763q0 58 41 99t100 41q56 0 96.5 -41.5t40.5 -98.5q0 -58 -40.5 -97.5t-96.5 -39.5q-60 0 -100.5 39.5t-40.5 97.5zM1022 1763q0 58 39.5 99
t97.5 41t99.5 -41.5t41.5 -98.5q0 -58 -41 -97.5t-100 -39.5t-98 39t-39 98z" />
    <glyph glyph-name="divide" unicode="&#xf7;" 
d="M102 739h922v-180h-922v180zM430 283q0 56 38.5 95.5t94.5 39.5q55 0 95 -40t40 -95q0 -56 -39.5 -94.5t-95.5 -38.5q-57 0 -95 38t-38 95zM430 1026q0 56 38.5 95.5t94.5 39.5q55 0 95 -39.5t40 -95.5t-39.5 -94.5t-95.5 -38.5q-57 0 -95 38t-38 95z" />
    <glyph glyph-name="oslash" unicode="&#xf8;" horiz-adv-x="1830" 
d="M915 -20q-221 0 -413 100l-66 -80h-241l155 188q-113 102 -175 240t-62 299t62.5 303.5t169.5 244.5t255 161t313 59q230 0 422 -109l74 89h240l-164 -199q110 -105 170.5 -244t60.5 -299q0 -158 -63 -298.5t-170 -240t-255 -157t-313 -57.5zM336 727q0 -229 141 -383
l735 893q-137 78 -299 78q-121 0 -228.5 -46.5t-183.5 -125t-120.5 -187t-44.5 -229.5zM915 162q163 0 295.5 73t208.5 204t76 294q0 227 -139 385l-729 -887q129 -69 288 -69z" />
    <glyph glyph-name="ugrave" unicode="&#xf9;" horiz-adv-x="1665" 
d="M836 -20q-299 0 -475.5 176.5t-176.5 482.5v836h217v-826q0 -226 116 -352.5t325 -126.5q205 0 319.5 127t114.5 352v826h205v-836q0 -303 -177 -481t-468 -178zM809 1595l-360 387h251l291 -387h-182z" />
    <glyph glyph-name="uacute" unicode="&#xfa;" horiz-adv-x="1665" 
d="M836 -20q-299 0 -475.5 176.5t-176.5 482.5v836h217v-826q0 -226 116 -352.5t325 -126.5q205 0 319.5 127t114.5 352v826h205v-836q0 -303 -177 -481t-468 -178zM719 1595l291 387h252l-361 -387h-182z" />
    <glyph glyph-name="ucircumflex" unicode="&#xfb;" horiz-adv-x="1665" 
d="M836 -20q-299 0 -475.5 176.5t-176.5 482.5v836h217v-826q0 -226 116 -352.5t325 -126.5q205 0 319.5 127t114.5 352v826h205v-836q0 -303 -177 -481t-468 -178zM791 1985h137l391 -390h-236l-225 246l-219 -246h-240z" />
    <glyph glyph-name="udieresis" unicode="&#xfc;" horiz-adv-x="1665" 
d="M836 -20q-299 0 -475.5 176.5t-176.5 482.5v836h217v-826q0 -226 116 -352.5t325 -126.5q205 0 319.5 127t114.5 352v826h205v-836q0 -303 -177 -481t-468 -178zM463 1763q0 58 41 99t100 41q56 0 96.5 -41.5t40.5 -98.5q0 -58 -40.5 -97.5t-96.5 -39.5
q-60 0 -100.5 39.5t-40.5 97.5zM977 1763q0 58 39.5 99t97.5 41t99.5 -41.5t41.5 -98.5q0 -58 -41 -97.5t-100 -39.5q-58 0 -97.5 39t-39.5 98z" />
    <glyph glyph-name="yacute" unicode="&#xfd;" horiz-adv-x="1601" 
d="M702 2v582l-661 891h252l518 -699l512 699h229l-651 -891v-582h-199zM666 1595l290 387h252l-360 -387h-182z" />
    <glyph glyph-name="thorn" unicode="&#xfe;" horiz-adv-x="1480" 
d="M207 0v1475h215v-277h379q270 0 425.5 -115t155.5 -335q0 -221 -156.5 -342t-424.5 -121h-379v-285h-215zM422 463h385q170 0 261 74.5t91 207.5t-93 204t-269 71h-375v-557z" />
    <glyph glyph-name="ydieresis" unicode="&#xff;" horiz-adv-x="1601" 
d="M702 2v582l-661 891h252l518 -699l512 699h229l-651 -891v-582h-199zM410 1763q0 58 41 99t100 41q56 0 96.5 -41.5t40.5 -98.5q0 -58 -40.5 -97.5t-96.5 -39.5q-60 0 -100.5 39.5t-40.5 97.5zM924 1763q0 58 39.5 99t97.5 41t99.5 -41.5t41.5 -98.5q0 -58 -41 -97.5
t-100 -39.5t-98 39t-39 98z" />
    <glyph glyph-name="dotlessi" unicode="&#x131;" horiz-adv-x="628" 
d="M422 1475v-1475h-215v1475h215z" />
    <glyph glyph-name="Lslash" unicode="&#x141;" horiz-adv-x="1370" 
d="M29 666l284 133v676h215v-574l346 162l74 -162l-420 -196v-525h807l-47 -180h-975v602l-211 -98z" />
    <glyph glyph-name="lslash" unicode="&#x142;" horiz-adv-x="1370" 
d="M29 666l284 133v676h215v-574l346 162l74 -162l-420 -196v-525h807l-47 -180h-975v602l-211 -98z" />
    <glyph glyph-name="OE" unicode="&#x152;" horiz-adv-x="2422" 
d="M920 162q148 0 274 55q-195 192 -195 481q0 163 55.5 304t157.5 247q-138 64 -294 64q-162 0 -296.5 -76t-212 -210.5t-77.5 -299.5q0 -164 78.5 -294t212.5 -200.5t297 -70.5zM1860 -20q-288 0 -500 114q-202 -114 -447 -114q-161 0 -307.5 55.5t-256 152.5t-174 238.5
t-64.5 304.5t65.5 306t175.5 243t258 157.5t310 57.5q244 0 446 -123q198 123 455 123q273 0 520 -100l-60 -172q-205 92 -460 92q-239 0 -399.5 -139t-196.5 -365h815l-27 -172h-792q25 -227 196 -352t449 -125q114 0 234.5 24t211.5 58l-26 -193q-83 -30 -198 -50.5
t-228 -20.5z" />
    <glyph glyph-name="oe" unicode="&#x153;" horiz-adv-x="2422" 
d="M920 162q148 0 274 55q-195 192 -195 481q0 163 55.5 304t157.5 247q-138 64 -294 64q-162 0 -296.5 -76t-212 -210.5t-77.5 -299.5q0 -164 78.5 -294t212.5 -200.5t297 -70.5zM1860 -20q-288 0 -500 114q-202 -114 -447 -114q-161 0 -307.5 55.5t-256 152.5t-174 238.5
t-64.5 304.5t65.5 306t175.5 243t258 157.5t310 57.5q244 0 446 -123q198 123 455 123q273 0 520 -100l-60 -172q-205 92 -460 92q-239 0 -399.5 -139t-196.5 -365h815l-27 -172h-792q25 -227 196 -352t449 -125q114 0 234.5 24t211.5 58l-26 -193q-83 -30 -198 -50.5
t-228 -20.5z" />
    <glyph glyph-name="Scaron" unicode="&#x160;" horiz-adv-x="1480" 
d="M96 111l54 186q280 -125 608 -125q205 0 312.5 60.5t107.5 166.5q0 36 -12 64t-41.5 51t-63.5 39.5t-95 33t-119 29t-151 29.5q-134 23 -233.5 55.5t-179.5 82t-121 121.5t-41 165q0 190 167.5 303t446.5 113q149 0 324 -32t291 -79l-60 -176q-104 45 -258 76t-303 31
q-191 0 -295 -60t-104 -158q0 -37 13.5 -66.5t43.5 -52.5t64 -40.5t91 -33t107 -26.5t127 -26q124 -23 214 -47.5t168 -59t125.5 -78t74 -103t26.5 -134.5q0 -200 -169 -315t-459 -115q-159 0 -341 34t-319 87zM809 1595h-137l-391 390h237l223 -240l222 240h237z" />
    <glyph glyph-name="scaron" unicode="&#x161;" horiz-adv-x="1480" 
d="M96 111l54 186q280 -125 608 -125q205 0 312.5 60.5t107.5 166.5q0 36 -12 64t-41.5 51t-63.5 39.5t-95 33t-119 29t-151 29.5q-134 23 -233.5 55.5t-179.5 82t-121 121.5t-41 165q0 190 167.5 303t446.5 113q149 0 324 -32t291 -79l-60 -176q-104 45 -258 76t-303 31
q-191 0 -295 -60t-104 -158q0 -37 13.5 -66.5t43.5 -52.5t64 -40.5t91 -33t107 -26.5t127 -26q124 -23 214 -47.5t168 -59t125.5 -78t74 -103t26.5 -134.5q0 -200 -169 -315t-459 -115q-159 0 -341 34t-319 87zM809 1595h-137l-391 390h237l223 -240l222 240h237z" />
    <glyph glyph-name="Ydieresis" unicode="&#x178;" horiz-adv-x="1601" 
d="M702 2v582l-661 891h252l518 -699l512 699h229l-651 -891v-582h-199zM410 1763q0 58 41 99t100 41q56 0 96.5 -41.5t40.5 -98.5q0 -58 -40.5 -97.5t-96.5 -39.5q-60 0 -100.5 39.5t-40.5 97.5zM924 1763q0 58 39.5 99t97.5 41t99.5 -41.5t41.5 -98.5q0 -58 -41 -97.5
t-100 -39.5t-98 39t-39 98z" />
    <glyph glyph-name="Zcaron" unicode="&#x17d;" horiz-adv-x="1402" 
d="M76 0v154l936 1140h-903v181h1191v-154l-944 -1141h965v-180h-1245zM780 1595h-137l-391 390h237l224 -240l221 240h237z" />
    <glyph glyph-name="zcaron" unicode="&#x17e;" horiz-adv-x="1402" 
d="M76 0v154l936 1140h-903v181h1191v-154l-944 -1141h965v-180h-1245zM780 1595h-137l-391 390h237l224 -240l221 240h237z" />
    <glyph glyph-name="uni0192" unicode="&#x192;" horiz-adv-x="1179" 
d="M971 743h-295l-49 -383q-24 -188 -108 -284t-218 -96q-115 0 -233 47l53 170q77 -35 143 -35q122 0 150 205l51 376h-207l16 172h209l31 240q20 160 112.5 250t239.5 90q134 0 246 -41l-45 -170q-26 11 -77.5 21t-88.5 10q-75 0 -122.5 -48.5t-59.5 -146.5l-25 -202h295z
" />
    <glyph glyph-name="circumflex" unicode="&#x2c6;" horiz-adv-x="1536" 
d="M698 1985h138l391 -390h-236l-225 246l-219 -246h-240z" />
    <glyph glyph-name="caron" unicode="&#x2c7;" horiz-adv-x="1536" 
d="M838 1595h-138l-391 390h238l223 -240l221 240h238z" />
    <glyph glyph-name="breve" unicode="&#x2d8;" horiz-adv-x="1075" 
d="M127 1944h186q14 -98 72.5 -158t151.5 -60q97 0 152 58.5t71 159.5h188q-26 -164 -133.5 -266.5t-275.5 -102.5q-169 0 -277.5 102.5t-134.5 266.5z" />
    <glyph glyph-name="dotaccent" unicode="&#x2d9;" horiz-adv-x="1173" 
d="M434 1757q0 63 44 107.5t110 44.5q63 0 107 -44.5t44 -107.5q0 -65 -43.5 -108t-107.5 -43q-66 0 -110 42.5t-44 108.5z" />
    <glyph glyph-name="ring" unicode="&#x2da;" horiz-adv-x="1705" 
d="M551 1886q0 120 85.5 206.5t205.5 86.5t206.5 -86.5t86.5 -206.5q0 -119 -86.5 -205t-206.5 -86t-205.5 86t-85.5 205zM690 1886q0 -64 43.5 -107.5t108.5 -43.5t109 43.5t44 107.5q0 65 -44.5 109.5t-108.5 44.5t-108 -44.5t-44 -109.5z" />
    <glyph glyph-name="ogonek" unicode="&#x2db;" horiz-adv-x="638" 
d="M528 -311l-12 -150q-35 -16 -86.5 -28.5t-93.5 -12.5q-120 0 -201.5 68.5t-81.5 175.5q0 96 73.5 189t197.5 171l114 -69q-79 -52 -133.5 -117t-54.5 -129q0 -57 40 -92t105 -35q32 0 73.5 10t59.5 19z" />
    <glyph glyph-name="tilde" unicode="&#x2dc;" horiz-adv-x="1198" 
d="M1010 1960l43 -166q-38 -67 -105 -119.5t-143 -52.5q-44 0 -88.5 20t-80.5 49t-70 57.5t-69 48.5t-65 20q-116 0 -219 -160l-35 166q38 65 110 119.5t158 54.5q43 0 86.5 -20.5t79 -49.5t68.5 -57.5t66.5 -49t62.5 -20.5q108 0 201 160z" />
    <glyph glyph-name="hungarumlaut" unicode="&#x2dd;" horiz-adv-x="1333" 
d="M205 1595l291 387h241l-350 -387h-182zM586 1595l288 387h242l-350 -387h-180z" />
    <glyph glyph-name="uni0300" unicode="&#x300;" horiz-adv-x="0" 
d="M-49 1595l-361 387h252l291 -387h-182z" />
    <glyph glyph-name="uni0301" unicode="&#x301;" horiz-adv-x="0" 
d="M-139 1595l291 387h251l-360 -387h-182z" />
    <glyph glyph-name="uni0302" unicode="&#x302;" horiz-adv-x="0" 
d="M-68 1985h138l391 -390h-236l-225 246l-219 -246h-240z" />
    <glyph glyph-name="uni0303" unicode="&#x303;" horiz-adv-x="0" 
d="M383 1960l45 -164q-37 -68 -102.5 -121t-135.5 -53q-49 0 -103.5 29t-93.5 64t-83.5 64t-77.5 29q-101 0 -205 -161l-39 157q39 69 107.5 126t148.5 57q41 0 83 -19.5t76 -46.5t66.5 -54.5t64.5 -47t59 -19.5q97 0 190 160z" />
    <glyph glyph-name="uni0304" unicode="&#x304;" horiz-adv-x="0" 
d="M-399 1686v176h798v-176h-798z" />
    <glyph glyph-name="uni0306" unicode="&#x306;" horiz-adv-x="0" 
d="M-410 1944h187q14 -98 72 -158t151 -60q97 0 152 58.5t71 159.5h189q-26 -164 -134 -266.5t-276 -102.5q-169 0 -277.5 102.5t-134.5 266.5z" />
    <glyph glyph-name="uni0307" unicode="&#x307;" horiz-adv-x="0" 
d="M-154 1757q0 63 44 107.5t110 44.5q63 0 107.5 -44.5t44.5 -107.5q0 -65 -44 -108t-108 -43q-66 0 -110 42.5t-44 108.5z" />
    <glyph glyph-name="uni0308" unicode="&#x308;" horiz-adv-x="0" 
d="M-395 1763q0 58 41 99t100 41q56 0 96.5 -41.5t40.5 -98.5q0 -58 -40.5 -97.5t-96.5 -39.5q-60 0 -100.5 39.5t-40.5 97.5zM119 1763q0 58 39.5 99t97.5 41t99.5 -41.5t41.5 -98.5q0 -58 -41 -97.5t-100 -39.5q-58 0 -97.5 39t-39.5 98z" />
    <glyph glyph-name="uni030A" unicode="&#x30a;" horiz-adv-x="0" 
d="M-291 1886q0 120 85.5 206.5t205.5 86.5t206.5 -86.5t86.5 -206.5q0 -119 -86.5 -205t-206.5 -86t-205.5 86t-85.5 205zM-152 1886q0 -64 43.5 -107.5t108.5 -43.5t109.5 43.5t44.5 107.5t-45 109t-109 45t-108 -44.5t-44 -109.5z" />
    <glyph glyph-name="uni030B" unicode="&#x30b;" horiz-adv-x="0" 
d="M-358 1595l290 387h242l-350 -387h-182zM23 1595l288 387h242l-350 -387h-180z" />
    <glyph glyph-name="uni030C" unicode="&#x30c;" horiz-adv-x="0" 
d="M70 1595h-138l-391 390h238l223 -240l221 240h238z" />
    <glyph glyph-name="uni0327" unicode="&#x327;" horiz-adv-x="0" 
d="M-92 45h149l-84 -182q194 -12 296 -84.5t102 -190.5q0 -131 -102.5 -204.5t-252.5 -73.5q-132 0 -252 35l-32 143q40 -14 110.5 -26.5t134.5 -12.5q93 0 148 31.5t55 91.5q0 147 -389 147z" />
    <glyph glyph-name="uni0328" unicode="&#x328;" horiz-adv-x="0" 
d="M201 -311l-13 -150q-35 -16 -86.5 -28.5t-93.5 -12.5q-120 0 -201 68.5t-81 175.5q0 96 73.5 189.5t196.5 170.5l115 -69q-80 -53 -134.5 -117.5t-54.5 -128.5q0 -57 40.5 -92t105.5 -35q32 0 73.5 10t59.5 19z" />
    <glyph glyph-name="uni0394" unicode="&#x394;" horiz-adv-x="1449" 
d="M1386 0h-1320v145l552 1330h183l585 -1330v-145zM705 1225l-420 -1045h862z" />
    <glyph glyph-name="uni03A9" unicode="&#x3a9;" horiz-adv-x="1648" 
d="M117 180h377q-157 139 -254 309.5t-97 339.5q0 191 86.5 343t241.5 237.5t350 85.5q145 0 272.5 -50t218.5 -137.5t143 -211t52 -265.5q0 -177 -94 -347.5t-262 -303.5h379v-180h-598v168q174 144 266 317t92 330q0 219 -134 359.5t-335 140.5t-331 -140t-130 -360
q0 -154 98.5 -335t260.5 -312v-168h-602v180z" />
    <glyph glyph-name="uni03BC" unicode="&#x3bc;" horiz-adv-x="1243" 
d="M864 0l-4 84q-157 -107 -303 -107q-87 0 -168 46v-408h-207v1409h207v-627q0 -117 54.5 -185.5t160.5 -68.5q75 0 143 28t103 65v788h211v-1024h-197z" />
    <glyph glyph-name="pi" unicode="&#x3c0;" horiz-adv-x="1294" 
d="M416 2h-205q20 136 39 366t22 476h-166l-8 157l189 23h909l-14 -180h-156v-664q0 -108 41 -178h-205q-41 64 -41 168v674h-344q-3 -248 -22 -490.5t-39 -351.5z" />
    <glyph glyph-name="endash" unicode="&#x2013;" horiz-adv-x="1355" 
d="M166 739h1024v-180h-1024v180z" />
    <glyph glyph-name="emdash" unicode="&#x2014;" horiz-adv-x="2379" 
d="M166 739h2048v-180h-2048v180z" />
    <glyph glyph-name="quoteleft" unicode="&#x2018;" horiz-adv-x="589" 
d="M373 1493l106 -59q-138 -100 -186 -238q64 -2 105.5 -42.5t41.5 -104.5q0 -66 -45 -111t-112 -45q-75 0 -118.5 53t-43.5 127v2q1 126 74 235.5t178 182.5z" />
    <glyph glyph-name="quoteright" unicode="&#x2019;" horiz-adv-x="581" 
d="M229 864l-100 58q134 98 178 225q-61 2 -101 41t-40 100q0 62 42.5 105t106.5 43q72 0 113 -50t41 -122q0 -120 -70 -225.5t-170 -174.5z" />
    <glyph glyph-name="quotesinglbase" unicode="&#x201a;" horiz-adv-x="532" 
d="M176 -303l-100 57q134 98 178 226q-61 2 -101 41t-40 100q0 62 42.5 104.5t106.5 42.5q72 0 113 -50t41 -122q0 -120 -69.5 -225t-170.5 -174z" />
    <glyph glyph-name="quotedblleft" unicode="&#x201c;" horiz-adv-x="1046" 
d="M276 922q-72 0 -113.5 50.5t-41.5 121.5q0 120 69.5 225t169.5 174l103 -57q-134 -98 -178 -226q61 -2 101 -41t40 -100q0 -62 -43.5 -104.5t-106.5 -42.5zM748 922q-72 0 -114 50.5t-42 121.5q0 120 69.5 225t169.5 174l103 -57q-134 -98 -178 -226q61 -2 101 -41
t40 -100q0 -62 -43 -104.5t-106 -42.5z" />
    <glyph glyph-name="quotedblright" unicode="&#x201d;" horiz-adv-x="1052" 
d="M229 864l-100 58q134 98 178 225q-61 2 -101 41t-40 100q0 62 42.5 105t106.5 43q72 0 113 -50t41 -122q0 -120 -70 -225.5t-170 -174.5zM700 864l-100 58q134 98 178 225q-61 2 -101 41t-40 100q0 62 42.5 105t106.5 43q72 0 113 -50t41 -122q0 -120 -70 -225.5
t-170 -174.5z" />
    <glyph glyph-name="quotedblbase" unicode="&#x201e;" horiz-adv-x="1003" 
d="M176 -303l-100 57q134 98 178 226q-61 2 -101 41t-40 100q0 62 42.5 104.5t106.5 42.5q72 0 113 -50t41 -122q0 -120 -69.5 -225t-170.5 -174zM647 -303l-100 57q134 98 178 226q-61 2 -101 41t-40 100q0 62 42.5 104.5t106.5 42.5q72 0 113 -50t41 -122
q0 -120 -69.5 -225t-170.5 -174z" />
    <glyph glyph-name="dagger" unicode="&#x2020;" horiz-adv-x="1007" 
d="M72 1202h354l-16 410h188l-14 -410h352v-168h-352l10 -264l-21 -973h-141l-16 971l10 266h-354v168z" />
    <glyph glyph-name="daggerdbl" unicode="&#x2021;" horiz-adv-x="1075" 
d="M106 1202h353l-17 410h191l-17 -410h353v-170h-357l15 -327l-15 -322h357v-168h-353l17 -418h-191l17 418h-353v168h357l-14 322l14 327h-357v170z" />
    <glyph glyph-name="bullet" unicode="&#x2022;" horiz-adv-x="933" 
d="M166 715q0 125 88.5 215t212.5 90q123 0 213 -90.5t90 -214.5t-89.5 -211.5t-213.5 -87.5q-125 0 -213 87.5t-88 211.5z" />
    <glyph glyph-name="ellipsis" unicode="&#x2026;" horiz-adv-x="1609" 
d="M121 143q0 66 45.5 111t112.5 45q65 0 111 -45t46 -111q0 -68 -45.5 -111.5t-111.5 -43.5q-68 0 -113 43.5t-45 111.5zM647 143q0 66 45.5 111t112.5 45q65 0 111.5 -45.5t46.5 -110.5q0 -68 -46 -111.5t-112 -43.5q-68 0 -113 43.5t-45 111.5zM1176 143q0 66 45 111
t112 45q65 0 111.5 -45.5t46.5 -110.5q0 -68 -46 -111.5t-112 -43.5q-68 0 -112.5 43.5t-44.5 111.5z" />
    <glyph glyph-name="perthousand" unicode="&#x2030;" horiz-adv-x="2394" 
d="M1985 623q145 0 244.5 -95t99.5 -227t-99.5 -226.5t-244.5 -94.5t-245 94.5t-100 226.5q0 133 100 227.5t245 94.5zM1985 123q70 0 123 50t53 128t-53 128t-123 50t-123.5 -50t-53.5 -128t53.5 -128t123.5 -50zM1300 1475h177l-1147 -1475h-176zM424 1495
q144 0 244 -94.5t100 -226.5q0 -133 -100 -227.5t-244 -94.5t-244 94.5t-100 227.5q0 132 100 226.5t244 94.5zM1221 623q145 0 244.5 -95t99.5 -227t-99.5 -226.5t-244.5 -94.5t-244.5 94.5t-99.5 226.5q0 133 99.5 227.5t244.5 94.5zM1221 123q70 0 123 50t53 128t-53 128
t-123 50t-123.5 -50t-53.5 -128t53.5 -128t123.5 -50zM424 995q73 0 124.5 50.5t51.5 128.5t-51 128t-125 50t-125 -50t-51 -128q0 -80 51 -129.5t125 -49.5z" />
    <glyph glyph-name="guilsinglleft" unicode="&#x2039;" horiz-adv-x="745" 
d="M104 625l263 399h215l-248 -399l248 -400h-215z" />
    <glyph glyph-name="guilsinglright" unicode="&#x203a;" horiz-adv-x="745" 
d="M379 1024l262 -399l-262 -400h-215l248 400l-248 399h215z" />
    <glyph glyph-name="fraction" unicode="&#x2044;" horiz-adv-x="1052" 
d="M1081 1475l-923 -1475h-187l914 1475h196z" />
    <glyph glyph-name="Euro" unicode="&#x20ac;" horiz-adv-x="1628" 
d="M86 940h211q70 257 270 406t463 149q274 0 516 -98l-57 -178q-216 94 -445 94q-188 0 -327.5 -101t-198.5 -272h893l-29 -117h-893q-8 -47 -8 -110q0 -47 6 -90h863l-31 -117h-801q61 -160 204.5 -251t326.5 -91q122 0 224.5 24.5t221.5 77.5l-25 -198
q-78 -37 -196 -62.5t-236 -25.5q-175 0 -329.5 63t-266 183.5t-153.5 279.5h-203v117h180q0 11 -1 33t-1 34q0 76 8 133h-186v117z" />
    <glyph glyph-name="trademark" unicode="&#x2122;" horiz-adv-x="1787" 
d="M723 1192h-219v-614h-174v614h-240v168h633v-168zM973 578h-164v782h133l268 -295l269 295h133v-782h-164v532l-238 -262l-237 262v-532z" />
    <glyph glyph-name="partialdiff" unicode="&#x2202;" horiz-adv-x="1220" 
d="M879 764q12 64 12 172q0 184 -87.5 289.5t-248.5 105.5q-83 0 -169.5 -22.5t-147.5 -55.5l8 174q64 29 156.5 48.5t187.5 19.5q240 0 374 -148t134 -405q0 -285 -71.5 -503.5t-204.5 -338.5t-308 -120q-188 0 -309 108.5t-121 294.5q0 221 134.5 363.5t334.5 142.5
q95 0 185.5 -38t140.5 -87zM291 401q0 -124 64 -191t177 -67q118 0 205 118.5t117 332.5q-46 56 -124.5 93.5t-160.5 37.5q-124 0 -201 -94.5t-77 -229.5z" />
    <glyph glyph-name="product" unicode="&#x220f;" horiz-adv-x="1542" 
d="M1034 -266v1560h-524v-1560h-217v1560h-223v181h1405v-181h-226v-1560h-215z" />
    <glyph glyph-name="summation" unicode="&#x2211;" horiz-adv-x="1349" 
d="M700 584l-622 733v158h1188v-181h-899l598 -700l-617 -680h918v-180h-1188v160z" />
    <glyph glyph-name="minus" unicode="&#x2212;" 
d="M102 559v180h922v-180h-922z" />
    <glyph glyph-name="radical" unicode="&#x221a;" horiz-adv-x="1222" 
d="M750 0h-195l-293 696l-188 -71l-58 153l373 144l264 -676h13l335 1231h164z" />
    <glyph glyph-name="infinity" unicode="&#x221e;" horiz-adv-x="1857" 
d="M1335 197q-251 0 -405 260q-81 -135 -174.5 -197.5t-233.5 -62.5q-176 0 -290.5 126t-114.5 316t113.5 318t287.5 128q260 0 410 -264q82 138 173.5 201t225.5 63q187 0 300.5 -128.5t113.5 -321.5q2 -189 -113.5 -313.5t-292.5 -124.5zM535 371q94 0 162.5 62t131.5 196
q-59 143 -131.5 211.5t-169.5 68.5q-103 0 -168 -77t-65 -193t68.5 -192t171.5 -76zM1333 371q99 0 164 73.5t66 188.5q0 119 -66.5 197.5t-173.5 78.5q-92 0 -161.5 -64.5t-135.5 -205.5q117 -268 307 -268z" />
    <glyph glyph-name="integral" unicode="&#x222b;" horiz-adv-x="696" 
d="M375 1475q0 -88 74.5 -714t74.5 -743q0 -235 -103 -349.5t-321 -114.5v180q211 0 211 274q0 107 -74.5 706t-74.5 740q0 235 104 351t346 116v-180q-128 0 -182.5 -66t-54.5 -200z" />
    <glyph glyph-name="approxequal" unicode="&#x2248;" 
d="M985 1016l33 -178q-40 -52 -122 -99t-142 -47q-56 0 -114 21.5t-99 48t-90 48t-89 21.5q-97 0 -241 -139l-23 168q53 61 127.5 109.5t161.5 48.5q55 0 110 -21.5t92.5 -48t83.5 -48t85 -21.5q94 0 227 137zM995 584l33 -178q-40 -52 -122 -99t-142 -47q-56 0 -114 21.5
t-98.5 48t-89.5 48t-89 21.5q-98 0 -242 -139l-22 168q137 158 288 158q55 0 110 -22t92.5 -48t83.5 -48t85 -22q93 0 227 138z" />
    <glyph glyph-name="notequal" unicode="&#x2260;" 
d="M889 1231l-103 -270h252v-181h-321l-103 -270h424v-180h-493l-101 -264h-163l100 264h-293v180h363l102 270h-465v181h535l102 270h164z" />
    <glyph glyph-name="lessequal" unicode="&#x2264;" 
d="M84 842l926 381v-195l-682 -258l682 -170v-197l-926 267v172zM86 131v180h924v-180h-924z" />
    <glyph glyph-name="greaterequal" unicode="&#x2265;" 
d="M117 1223l925 -381v-172l-925 -267v197l682 170l-682 258v195zM1040 311v-180h-923v180h923z" />
    <glyph glyph-name="lozenge" unicode="&#x25ca;" 
d="M668 0h-203l-399 737l399 738h203l391 -738zM565 1290l-272 -553l272 -553l269 553z" />
    <glyph glyph-name="four.superior" horiz-adv-x="1024" 
d="M899 772h-131v-151h-164v151h-495v137l509 566h150v-568h170zM604 907v359l-323 -359h323z" />
    <glyph glyph-name="K.alt" horiz-adv-x="1552" 
d="M1528 0h-244q-88 171 -247 380.5t-296 330.5l-319 -320v-391h-215v1475h215v-824l811 824h276l-622 -621q166 -149 355 -398t286 -456z" />
    <glyph glyph-name="A.alt" horiz-adv-x="1576" 
d="M20 0l699 1475h155l668 -1475h-237l-156 358h-748l-163 -358h-218zM1073 532l-287 660l-305 -660h592z" />
    <glyph glyph-name="N.alt" horiz-adv-x="1785" 
d="M1579 0h-188q-182 307 -450 629.5t-529 554.5v-1184h-205v1475h184q259 -213 527 -508.5t456 -585.5v1094h205v-1475z" />
    <glyph glyph-name="Z.alt" horiz-adv-x="1415" 
d="M84 0v154q195 313 438.5 611.5t483.5 528.5h-889v181h1192v-154q-277 -258 -535.5 -560.5t-433.5 -580.5h989v-180h-1245z" />
    <glyph glyph-name="V.alt" horiz-adv-x="1536" 
d="M1280 1475h201q-113 -400 -277 -784.5t-346 -690.5h-172q-341 548 -645 1475h225q120 -362 254.5 -685.5t263.5 -556.5q137 254 267 580t229 662z" />
    <glyph glyph-name="R.alt" horiz-adv-x="1658" 
d="M43 1296l72 179h770q119 0 225.5 -31.5t189.5 -90t132 -150.5t49 -206q0 -156 -88.5 -268t-239.5 -170l481 -559h-282l-422 510q-23 -2 -72 -2h-356v-508h-215v1296h-244zM502 686h332q187 0 306.5 80.5t119.5 226.5t-115 224.5t-297 78.5h-346v-610z" />
    <glyph glyph-name="F.alt" horiz-adv-x="1419" 
d="M41 1296l74 179h1280l-41 -181h-852v-518h608l-35 -180h-573v-596h-215v1296h-246z" />
    <glyph glyph-name="W.alt" horiz-adv-x="2271" 
d="M1049 1475h180q165 -698 387 -1225q109 243 211 574.5t164 650.5h221q-79 -384 -215.5 -772.5t-306.5 -702.5h-172q-226 517 -381 1112q-139 -534 -381 -1112h-170q-169 311 -307.5 698.5t-223.5 776.5h226q67 -333 170.5 -660t216.5 -557q112 269 215 599.5t166 617.5z
" />
    <glyph glyph-name="X.alt" horiz-adv-x="1562" 
d="M770 621q-134 -132 -268 -300.5t-230 -320.5h-241q116 179 282 377t332 362q-202 199 -332 358.5t-272 377.5h272q103 -165 212.5 -304t267.5 -297q113 115 243 280.5t230 320.5h243q-108 -171 -277 -374t-314 -345q348 -335 626 -756h-270q-213 333 -504 621z" />
    <glyph glyph-name="D.alt" horiz-adv-x="1785" 
d="M43 1296l72 179h708q177 0 331.5 -48.5t270 -138t182 -225.5t66.5 -301q0 -174 -65 -318.5t-179.5 -241t-270 -149.5t-335.5 -53h-536v1296h-244zM504 180h307q286 0 462.5 159.5t176.5 422.5q0 163 -83 284.5t-227 184.5t-329 63h-307v-1114z" />
    <glyph glyph-name="Q.alt" horiz-adv-x="1855" 
d="M1841 -250l-455 369q-210 -139 -473 -139q-165 0 -312.5 56t-255.5 154t-171 237.5t-63 299.5q0 161 62.5 303.5t169.5 244.5t255 161t313 59t313 -58.5t256 -158.5t171 -242.5t63 -302.5q0 -281 -182 -485l434 -344zM913 162q163 0 295.5 73t208.5 204t76 294
q0 124 -45.5 232.5t-123 185t-185 120.5t-228.5 44t-228.5 -46.5t-183.5 -125t-120.5 -187t-44.5 -229.5q0 -165 76 -294.5t208 -200t295 -70.5z" />
    <glyph glyph-name="H.alt" horiz-adv-x="1699" 
d="M1278 0v807h-856v-807h-215v1475h215v-486h856v486h217v-1475h-217z" />
    <glyph glyph-name="B.alt" horiz-adv-x="1667" 
d="M68 1296l71 179h828q133 0 246.5 -45t184 -131t70.5 -195q0 -104 -68.5 -183.5t-166.5 -121.5q69 -20 125.5 -50.5t103.5 -74.5t73 -106t26 -138q0 -137 -81.5 -236t-212.5 -146.5t-294 -47.5h-707v1296h-198zM481 178h471q173 0 282 67.5t109 192.5q0 118 -108.5 181
t-280.5 63h-473v-504zM481 854h451q143 0 231 60.5t88 168.5q0 93 -91 153t-220 60h-459v-442z" />
    <glyph glyph-name="C.alt" horiz-adv-x="1509" 
d="M930 -20q-131 0 -254 33t-225 96t-178.5 150t-119 201t-42.5 242q0 171 65 320t175 252t259 162t314 59q138 0 284.5 -32.5t270.5 -92.5l-119 -153q-208 94 -428 94q-168 0 -305.5 -79t-215 -214.5t-77.5 -298.5q0 -165 81.5 -292.5t218.5 -195t304 -67.5q227 0 448 108
l-24 -202q-85 -40 -201.5 -65t-230.5 -25z" />
    <glyph glyph-name="R.alt2" horiz-adv-x="1548" 
d="M1466 0h-247q-146 271 -357 512q-54 -4 -84 -4h-356v-508h-215v1475h598q119 0 225.5 -31.5t189.5 -90t132 -150.5t49 -206q0 -154 -87 -265t-235 -171q223 -267 387 -561zM422 686h332q187 0 306.5 80.5t119.5 226.5t-115 224.5t-297 78.5h-346v-610z" />
    </font>
</defs>
</svg>
